Warforum

stahuj.forumonline.biz
 
DomovFAQHľadaťRegistráciaZoznam užívateľovUžívateľské skupinyPrihlásenie

Share | 
 

 Now You See Me 2 / Podfukáři 2 (2016)

Zobraziť predchádzajúcu tému Zobraziť nasledujúcu tému Goto down 
AutorSpráva
Jack86



Počet príspevkov : 110
Registration date : 10.02.2010

OdoslaťPredmet: Now You See Me 2 / Podfukáři 2 (2016)   Ne august 28, 2016 8:22 pm





kód:

http://www.csfd.cz/film/350120-podfukari-2/prehled/
http://www.imdb.com/title/tt3110958/


[size=140]Now.You.See.Me.2.2016.1080p.BluRay.x264-SPARKS + titulky[/size]


Audio: EN
Titulky: CZ


kód:
Now.You.See.Me.2.2016.1080p.BluRay.x264-SPARKS
Format                      : Matroska
Format version              : Version 4 / Version 2
File size                  : 8.74 GiB
Duration                    : 2 h 9 min
Overall bit rate            : 9 685 kb/s
Encoded date                : UTC 2016-08-25 07:28:09
Writing application        : mkvmerge v8.3.0 ('Over the Horizon') 64bit
Writing library            : libebml v1.3.1 + libmatroska v1.4.2

Video
ID                          : 1
Format                      : AVC
Format/Info                : Advanced Video Codec
Format profile              : High@L4.1
Format settings, CABAC      : Yes
Format settings, ReFrames  : 5 frames
Codec ID                    : V_MPEG4/ISO/AVC
Duration                    : 2 h 9 min
Bit rate                    : 9 048 kb/s
Width                      : 1 920 pixels
Height                      : 800 pixels
Display aspect ratio        : 2.40:1
Frame rate mode            : Constant
Frame rate                  : 23.976 FPS
Color space                : YUV
Chroma subsampling          : 4:2:0
Bit depth                  : 8 bits
Scan type                  : Progressive
Bits/(Pixel*Frame)          : 0.246
Stream size                : 8.16 GiB (93%)
Writing library            : x264 core 148 r2692 64f4e24
Encoding settings          : cabac=1 / ref=5 / deblock=1:0:0 / analyse=0x3:0x133 / me=umh / subme=7 / psy=1 / psy_rd=1.00:0.00 / mixed_ref=1 / me_range=16 / chroma_me=1 / trellis=1 / 8x8dct=1 / cqm=0 / deadzone=21,11 / fast_pskip=0 / chroma_qp_offset=-2 / threads=18 / lookahead_threads=3 / sliced_threads=0 / nr=0 / decimate=1 / interlaced=0 / bluray_compat=0 / constrained_intra=0 / bframes=3 / b_pyramid=2 / b_adapt=1 / b_bias=0 / direct=1 / weightb=1 / open_gop=0 / weightp=2 / keyint=250 / keyint_min=23 / scenecut=40 / intra_refresh=0 / rc_lookahead=40 / rc=2pass / mbtree=1 / bitrate=9048 / ratetol=1.0 / qcomp=0.60 / qpmin=0 / qpmax=69 / qpstep=4 / cplxblur=20.0 / qblur=0.5 / ip_ratio=1.40 / aq=1:1.00
Language                    : English
Default                    : Yes
Forced                      : No

Audio
ID                          : 2
Format                      : AC-3
Format/Info                : Audio Coding 3
Mode extension              : CM (complete main)
Format settings, Endianness : Big
Codec ID                    : A_AC3
Duration                    : 2 h 9 min
Bit rate mode              : Constant
Bit rate                    : 640 kb/s
Channel(s)                  : 6 channels
Channel positions          : Front: L C R, Side: L R, LFE
Sampling rate              : 48.0 kHz
Frame rate                  : 31.250 FPS (1536 spf)
Compression mode            : Lossy
Stream size                : 592 MiB (7%)
Language                    : English
Default                    : Yes
Forced                      : No

Menu
00:00:00.000                : en:00:00:00.000
00:07:05.133                : en:00:07:05.133
00:16:03.838                : en:00:16:03.838
00:25:29.570                : en:00:25:29.570
00:33:16.828                : en:00:33:16.828
00:39:57.645                : en:00:39:57.645
00:48:07.718                : en:00:48:07.718
00:53:34.711                : en:00:53:34.711
01:03:53.246                : en:01:03:53.246
01:14:00.561                : en:01:14:00.561
01:20:23.569                : en:01:20:23.569
01:26:37.400                : en:01:26:37.400
01:32:37.051                : en:01:32:37.051
01:38:46.837                : en:01:38:46.837
01:48:13.529                : en:01:48:13.529
01:54:04.921                : en:01:54:04.921

kód:

http://www.fastshare.cz/6405515/skasyrl08612emesuywn.part1.rar
http://www.fastshare.cz/6405530/skasyrl08612emesuywn.part2.rar
http://www.fastshare.cz/6405547/skasyrl08612emesuywn.part3.rar
http://www.fastshare.cz/6405561/skasyrl08612emesuywn.part4.rar
http://www.fastshare.cz/6405568/skasyrl08612emesuywn.part5.rar

kód:

https://sdilej.cz/7927867/SKASyRl08612eMeSuYwN.part1.rar
https://sdilej.cz/7927870/SKASyRl08612eMeSuYwN.part2.rar
https://sdilej.cz/7927873/SKASyRl08612eMeSuYwN.part3.rar
https://sdilej.cz/7927980/SKASyRl08612eMeSuYwN.part4.rar
https://sdilej.cz/7927982/SKASyRl08612eMeSuYwN.part5.rar

kód:

http://file-share.top/file/390973/skasyrl08612emesuywn-part1-rar
http://file-share.top/file/390975/skasyrl08612emesuywn-part2-rar
http://file-share.top/file/390976/skasyrl08612emesuywn-part3-rar
http://file-share.top/file/390978/skasyrl08612emesuywn-part4-rar
http://file-share.top/file/390981/skasyrl08612emesuywn-part5-rar


Upload 3% na opravu dat

no pass
Návrat hore Goto down
Zobrazit informácie o autorovi
Jack86



Počet príspevkov : 110
Registration date : 10.02.2010

OdoslaťPredmet: Re: Now You See Me 2 / Podfukáři 2 (2016)   Št september 01, 2016 2:22 am





kód:

http://www.csfd.cz/film/350120-podfukari-2/prehled/
http://www.imdb.com/title/tt3110958/


[size=140]Now.You.See.Me.2.2016.1080p.BluRay.x264.TrueHD.7.1.Atmos-FGT + titulky[/size]


Audio: EN
Titulky: CZ


kód:
Now.You.See.Me.2.2016.1080p.BluRay.x264.TrueHD.7.1.Atmos-FGT
Format                      : Matroska
Format version              : Version 4 / Version 2
File size                  : 13.1 GiB
Duration                    : 2 h 9 min
Overall bit rate mode      : Variable
Overall bit rate            : 14.5 Mb/s
Movie name                  : Now.You.See.Me.2.2016.1080p.BluRay.x264.TrueHD.7.1.Atmos-FGT
Encoded date                : UTC 2016-08-28 20:05:30
Writing application        : mkvmerge v9.4.0 ('Knurl') 64bit
Writing library            : libebml v1.3.4 + libmatroska v1.4.5
Cover                      : Yes
Attachments                : small_cover.jpg / small_cover_land.jpg / cover.jpg / cover_land.jpg

Video
ID                          : 1
Format                      : AVC
Format/Info                : Advanced Video Codec
Format profile              : High@L4.1
Format settings, CABAC      : Yes
Format settings, ReFrames  : 5 frames
Codec ID                    : V_MPEG4/ISO/AVC
Duration                    : 2 h 9 min
Nominal bit rate            : 9 048 kb/s
Width                      : 1 920 pixels
Height                      : 800 pixels
Display aspect ratio        : 2.40:1
Frame rate mode            : Constant
Frame rate                  : 23.976 FPS
Color space                : YUV
Chroma subsampling          : 4:2:0
Bit depth                  : 8 bits
Scan type                  : Progressive
Bits/(Pixel*Frame)          : 0.246
Title                      : Now.You.See.Me.2.2016.1080p.BluRay.x264.TrueHD.7.1.Atmos-FGT
Writing library            : x264 core 148 r2692 64f4e24
Encoding settings          : cabac=1 / ref=5 / deblock=1:0:0 / analyse=0x3:0x133 / me=umh / subme=7 / psy=1 / psy_rd=1.00:0.00 / mixed_ref=1 / me_range=16 / chroma_me=1 / trellis=1 / 8x8dct=1 / cqm=0 / deadzone=21,11 / fast_pskip=0 / chroma_qp_offset=-2 / threads=18 / lookahead_threads=3 / sliced_threads=0 / nr=0 / decimate=1 / interlaced=0 / bluray_compat=0 / constrained_intra=0 / bframes=3 / b_pyramid=2 / b_adapt=1 / b_bias=0 / direct=1 / weightb=1 / open_gop=0 / weightp=2 / keyint=250 / keyint_min=23 / scenecut=40 / intra_refresh=0 / rc_lookahead=40 / rc=2pass / mbtree=1 / bitrate=9048 / ratetol=1.0 / qcomp=0.60 / qpmin=0 / qpmax=69 / qpstep=4 / cplxblur=20.0 / qblur=0.5 / ip_ratio=1.40 / aq=1:1.00
Language                    : English
Default                    : Yes
Forced                      : No

Audio #1
ID                          : 2
Format                      : Atmos / TrueHD
Codec ID                    : A_TRUEHD
Bit rate mode              : Variable
Maximum bit rate            : 6 357 kb/s
Channel(s)                  : Object Based / 8 channels
Channel positions          : Object Based / Front: L C R, Side: L R, Back: L R, LFE
Sampling rate              :  / 48.0 kHz
Frame rate                  : 1 200.000 FPS (40 spf)
Compression mode            : Lossless
Title                      : Now.You.See.Me.2.2016.1080p.BluRay.x264.TrueHD.7.1.Atmos-FGT
Language                    : English
Default                    : Yes
Forced                      : No

Audio #2
ID                          : 3
Format                      : AC-3
Format/Info                : Audio Coding 3
Mode extension              : CM (complete main)
Format settings, Endianness : Big
Codec ID                    : A_AC3
Duration                    : 2 h 9 min
Bit rate mode              : Constant
Bit rate                    : 640 kb/s
Channel(s)                  : 6 channels
Channel positions          : Front: L C R, Side: L R, LFE
Sampling rate              : 48.0 kHz
Frame rate                  : 31.250 FPS (1536 spf)
Compression mode            : Lossy
Stream size                : 592 MiB (4%)
Title                      : Now.You.See.Me.2.2016.1080p.BluRay.x264.TrueHD.7.1.Atmos-FGT
Language                    : English
Default                    : No
Forced                      : No

Text #1
ID                          : 4
Format                      : PGS
Muxing mode                : zlib
Codec ID                    : S_HDMV/PGS
Codec ID/Info              : Picture based subtitle format used on BDs/HD-DVDs
Title                      : English-PGS
Language                    : English
Default                    : No
Forced                      : No

Text #2
ID                          : 5
Format                      : PGS
Muxing mode                : zlib
Codec ID                    : S_HDMV/PGS
Codec ID/Info              : Picture based subtitle format used on BDs/HD-DVDs
Title                      : English-SDH-PGS
Language                    : English
Default                    : No
Forced                      : No

Text #3
ID                          : 6
Format                      : PGS
Muxing mode                : zlib
Codec ID                    : S_HDMV/PGS
Codec ID/Info              : Picture based subtitle format used on BDs/HD-DVDs
Title                      : Spanish-PGS
Language                    : Spanish
Default                    : No
Forced                      : No

Menu
00:00:00.000                : en:00:00:00.000
00:07:05.133                : en:00:07:05.133
00:16:03.838                : en:00:16:03.838
00:25:29.570                : en:00:25:29.570
00:33:16.828                : en:00:33:16.828
00:39:57.645                : en:00:39:57.645
00:48:07.718                : en:00:48:07.718
00:53:34.711                : en:00:53:34.711
01:03:53.246                : en:01:03:53.246
01:14:00.561                : en:01:14:00.561
01:20:23.569                : en:01:20:23.569
01:26:37.400                : en:01:26:37.400
01:32:37.051                : en:01:32:37.051
01:38:46.837                : en:01:38:46.837
01:48:13.529                : en:01:48:13.529
01:54:04.921                : en:01:54:04.921

kód:

http://www.fastshare.cz/6408703/tgfdhtyrlb0861022mesoyn.part1.rar
http://www.fastshare.cz/6408715/tgfdhtyrlb0861022mesoyn.part2.rar
http://www.fastshare.cz/6408723/tgfdhtyrlb0861022mesoyn.part3.rar
http://www.fastshare.cz/6408729/tgfdhtyrlb0861022mesoyn.part4.rar
http://www.fastshare.cz/6408736/tgfdhtyrlb0861022mesoyn.part5.rar
http://www.fastshare.cz/6408744/tgfdhtyrlb0861022mesoyn.part6.rar
http://www.fastshare.cz/6408748/tgfdhtyrlb0861022mesoyn.part7.rar

kód:

https://sdilej.cz/7928378/TGFDHTyRlB0861022MeSoYN.part1.rar
https://sdilej.cz/7928379/TGFDHTyRlB0861022MeSoYN.part2.rar
https://sdilej.cz/7928383/TGFDHTyRlB0861022MeSoYN.part3.rar
https://sdilej.cz/7928386/TGFDHTyRlB0861022MeSoYN.part4.rar
https://sdilej.cz/7928390/TGFDHTyRlB0861022MeSoYN.part5.rar
https://sdilej.cz/7928799/TGFDHTyRlB0861022MeSoYN.part7.rar
https://sdilej.cz/7928809/TGFDHTyRlB0861022MeSoYN.part6.rar

kód:

http://file-share.top/file/391532/tgfdhtyrlb0861022mesoyn-part1-rar
http://file-share.top/file/391536/tgfdhtyrlb0861022mesoyn-part2-rar
http://file-share.top/file/391539/tgfdhtyrlb0861022mesoyn-part3-rar
http://file-share.top/file/391541/tgfdhtyrlb0861022mesoyn-part4-rar
http://file-share.top/file/391545/tgfdhtyrlb0861022mesoyn-part5-rar
http://file-share.top/file/391548/tgfdhtyrlb0861022mesoyn-part6-rar
http://file-share.top/file/391551/tgfdhtyrlb0861022mesoyn-part7-rar


[size=140]Now.You.See.Me.2.2016.1080p.BluRay.REMUX.AVC.TrueHD.7.1.Atmos-FGT + titulky[/size]


Audio: EN
Titulky: CZ


kód:
Now.You.See.Me.2.2016.1080p.BluRay.REMUX.AVC.TrueHD.7.1.Atmos-FGT
Format                      : Matroska
Format version              : Version 4 / Version 2
File size                  : 33.0 GiB
Duration                    : 2 h 9 min
Overall bit rate mode      : Variable
Overall bit rate            : 36.6 Mb/s
Movie name                  : Now.You.See.Me.2.2016.1080p.BluRay.REMUX.AVC.TrueHD.7.1.Atmos-FGT
Encoded date                : UTC 2016-08-28 20:15:56
Writing application        : mkvmerge v9.4.0 ('Knurl') 64bit
Writing library            : libebml v1.3.4 + libmatroska v1.4.5
Cover                      : Yes
Attachments                : small_cover.jpg / small_cover_land.jpg / cover.jpg / cover_land.jpg

Video
ID                          : 1
Format                      : AVC
Format/Info                : Advanced Video Codec
Format profile              : High@L4.1
Format settings, CABAC      : Yes
Format settings, ReFrames  : 4 frames
Codec ID                    : V_MPEG4/ISO/AVC
Duration                    : 2 h 9 min
Bit rate mode              : Variable
Maximum bit rate            : 35.0 Mb/s
Width                      : 1 920 pixels
Height                      : 1 080 pixels
Display aspect ratio        : 16:9
Frame rate mode            : Constant
Frame rate                  : 23.976 (24000/1001) FPS
Color space                : YUV
Chroma subsampling          : 4:2:0
Bit depth                  : 8 bits
Scan type                  : Progressive
Title                      : Now.You.See.Me.2.2016.1080p.BluRay.REMUX.AVC.TrueHD.7.1.Atmos-FGT
Language                    : English
Default                    : No
Forced                      : No

Audio #1
ID                          : 2
Format                      : Atmos / TrueHD
Codec ID                    : A_TRUEHD
Bit rate mode              : Variable
Maximum bit rate            : 6 357 kb/s
Channel(s)                  : Object Based / 8 channels
Channel positions          : Object Based / Front: L C R, Side: L R, Back: L R, LFE
Sampling rate              :  / 48.0 kHz
Frame rate                  : 1 200.000 FPS (40 spf)
Compression mode            : Lossless
Title                      : Now.You.See.Me.2.2016.1080p.BluRay.REMUX.AVC.TrueHD.7.1.Atmos-FGT
Language                    : English
Default                    : Yes
Forced                      : No

Audio #2
ID                          : 3
Format                      : AC-3
Format/Info                : Audio Coding 3
Mode extension              : CM (complete main)
Format settings, Endianness : Big
Codec ID                    : A_AC3
Duration                    : 2 h 9 min
Bit rate mode              : Constant
Bit rate                    : 640 kb/s
Channel(s)                  : 6 channels
Channel positions          : Front: L C R, Side: L R, LFE
Sampling rate              : 48.0 kHz
Frame rate                  : 31.250 FPS (1536 spf)
Compression mode            : Lossy
Stream size                : 592 MiB (2%)
Title                      : Now.You.See.Me.2.2016.1080p.BluRay.REMUX.AVC.TrueHD.7.1.Atmos-FGT
Language                    : English
Default                    : No
Forced                      : No

Audio #3
ID                          : 4
Format                      : AC-3
Format/Info                : Audio Coding 3
Mode extension              : CM (complete main)
Format settings, Endianness : Big
Codec ID                    : A_AC3
Duration                    : 2 h 9 min
Bit rate mode              : Constant
Bit rate                    : 640 kb/s
Channel(s)                  : 6 channels
Channel positions          : Front: L C R, Side: L R, LFE
Sampling rate              : 48.0 kHz
Frame rate                  : 31.250 FPS (1536 spf)
Compression mode            : Lossy
Stream size                : 592 MiB (2%)
Title                      : Now.You.See.Me.2.2016.1080p.BluRay.REMUX.AVC.TrueHD.7.1.Atmos-FGT
Language                    : Spanish
Default                    : No
Forced                      : No

Audio #4
ID                          : 5
Format                      : AC-3
Format/Info                : Audio Coding 3
Format profile              : Dolby Digital
Mode extension              : CM (complete main)
Format settings, Endianness : Big
Codec ID                    : A_AC3
Duration                    : 2 h 9 min
Bit rate mode              : Constant
Bit rate                    : 640 kb/s
Channel(s)                  : 2 channels
Channel positions          : Front: L R
Sampling rate              : 48.0 kHz
Frame rate                  : 31.250 FPS (1536 spf)
Compression mode            : Lossy
Stream size                : 592 MiB (2%)
Title                      : Now.You.See.Me.2.2016.1080p.BluRay.REMUX.AVC.TrueHD.7.1.Atmos-FGT
Language                    : English
Default                    : No
Forced                      : No

Audio #5
ID                          : 6
Format                      : AC-3
Format/Info                : Audio Coding 3
Format profile              : Dolby Digital
Mode extension              : CM (complete main)
Format settings, Endianness : Big
Codec ID                    : A_AC3
Duration                    : 2 h 9 min
Bit rate mode              : Constant
Bit rate                    : 640 kb/s
Channel(s)                  : 2 channels
Channel positions          : Front: L R
Sampling rate              : 48.0 kHz
Frame rate                  : 31.250 FPS (1536 spf)
Compression mode            : Lossy
Stream size                : 592 MiB (2%)
Title                      : Now.You.See.Me.2.2016.1080p.BluRay.REMUX.AVC.TrueHD.7.1.Atmos-FGT
Language                    : English
Default                    : No
Forced                      : No

Audio #6
ID                          : 7
Format                      : AC-3
Format/Info                : Audio Coding 3
Format profile              : Dolby Digital
Mode extension              : CM (complete main)
Format settings, Endianness : Big
Codec ID                    : A_AC3
Duration                    : 2 h 9 min
Bit rate mode              : Constant
Bit rate                    : 224 kb/s
Channel(s)                  : 2 channels
Channel positions          : Front: L R
Sampling rate              : 48.0 kHz
Frame rate                  : 31.250 FPS (1536 spf)
Compression mode            : Lossy
Stream size                : 207 MiB (1%)
Title                      : Now.You.See.Me.2.2016.1080p.BluRay.REMUX.AVC.TrueHD.7.1.Atmos-FGT
Language                    : English
Default                    : No
Forced                      : No

Text #1
ID                          : 8
Format                      : PGS
Muxing mode                : zlib
Codec ID                    : S_HDMV/PGS
Codec ID/Info              : Picture based subtitle format used on BDs/HD-DVDs
Title                      : English-PGS
Language                    : English
Default                    : No
Forced                      : No

Text #2
ID                          : 9
Format                      : PGS
Muxing mode                : zlib
Codec ID                    : S_HDMV/PGS
Codec ID/Info              : Picture based subtitle format used on BDs/HD-DVDs
Title                      : English-SDH-PGS
Language                    : English
Default                    : No
Forced                      : No

Text #3
ID                          : 10
Format                      : PGS
Muxing mode                : zlib
Codec ID                    : S_HDMV/PGS
Codec ID/Info              : Picture based subtitle format used on BDs/HD-DVDs
Title                      : Spanish-PGS
Language                    : Spanish
Default                    : No
Forced                      : No

Text #4
ID                          : 11
Format                      : PGS
Muxing mode                : zlib
Codec ID                    : S_HDMV/PGS
Codec ID/Info              : Picture based subtitle format used on BDs/HD-DVDs
Title                      : Spanish-FORCED-PGS
Language                    : Spanish
Default                    : No
Forced                      : No

Menu
00:00:00.000                : en:Chapter 01
00:07:05.133                : en:Chapter 02
00:16:03.837                : en:Chapter 03
00:25:29.569                : en:Chapter 04
00:33:16.828                : en:Chapter 05
00:39:57.645                : en:Chapter 06
00:48:07.718                : en:Chapter 07
00:53:34.711                : en:Chapter 08
01:03:53.246                : en:Chapter 09
01:14:00.561                : en:Chapter 10
01:20:23.568                : en:Chapter 11
01:26:37.400                : en:Chapter 12
01:32:37.051                : en:Chapter 13
01:38:46.837                : en:Chapter 14
01:48:13.528                : en:Chapter 15
01:54:04.921                : en:Chapter 16

kód:

http://www.fastshare.cz/6413342/tgfsaxmryal08612meeuown.part01.rar
http://www.fastshare.cz/6413364/tgfsaxmryal08612meeuown.part02.rar
http://www.fastshare.cz/6413385/tgfsaxmryal08612meeuown.part03.rar
http://www.fastshare.cz/6413408/tgfsaxmryal08612meeuown.part04.rar
http://www.fastshare.cz/6413434/tgfsaxmryal08612meeuown.part05.rar
http://www.fastshare.cz/6413448/tgfsaxmryal08612meeuown.part06.rar
http://www.fastshare.cz/6413468/tgfsaxmryal08612meeuown.part07.rar
http://www.fastshare.cz/6413498/tgfsaxmryal08612meeuown.part08.rar
http://www.fastshare.cz/6413520/tgfsaxmryal08612meeuown.part09.rar
http://www.fastshare.cz/6413543/tgfsaxmryal08612meeuown.part10.rar
http://www.fastshare.cz/6413566/tgfsaxmryal08612meeuown.part11.rar
http://www.fastshare.cz/6413587/tgfsaxmryal08612meeuown.part12.rar
http://www.fastshare.cz/6413611/tgfsaxmryal08612meeuown.part13.rar
http://www.fastshare.cz/6413634/tgfsaxmryal08612meeuown.part14.rar
http://www.fastshare.cz/6413660/tgfsaxmryal08612meeuown.part15.rar
http://www.fastshare.cz/6413687/tgfsaxmryal08612meeuown.part16.rar
http://www.fastshare.cz/6413715/tgfsaxmryal08612meeuown.part17.rar
http://www.fastshare.cz/6413716/tgfsaxmryal08612meeuown.part18.rar

kód:

https://sdilej.cz/7928907/TGFsAXMRyal08612MeeuowN.part01.rar
https://sdilej.cz/7928912/TGFsAXMRyal08612MeeuowN.part02.rar
https://sdilej.cz/7928915/TGFsAXMRyal08612MeeuowN.part03.rar
https://sdilej.cz/7928923/TGFsAXMRyal08612MeeuowN.part04.rar
https://sdilej.cz/7928929/TGFsAXMRyal08612MeeuowN.part05.rar
https://sdilej.cz/7928933/TGFsAXMRyal08612MeeuowN.part06.rar
https://sdilej.cz/7928946/TGFsAXMRyal08612MeeuowN.part11.rar
https://sdilej.cz/7928949/TGFsAXMRyal08612MeeuowN.part12.rar
https://sdilej.cz/7928951/TGFsAXMRyal08612MeeuowN.part13.rar
https://sdilej.cz/7928953/TGFsAXMRyal08612MeeuowN.part07.rar
https://sdilej.cz/7928954/TGFsAXMRyal08612MeeuowN.part08.rar
https://sdilej.cz/7928964/TGFsAXMRyal08612MeeuowN.part14.rar
https://sdilej.cz/7928965/TGFsAXMRyal08612MeeuowN.part09.rar
https://sdilej.cz/7928966/TGFsAXMRyal08612MeeuowN.part10.rar
https://sdilej.cz/7928969/TGFsAXMRyal08612MeeuowN.part15.rar
https://sdilej.cz/7928975/TGFsAXMRyal08612MeeuowN.part16.rar
https://sdilej.cz/7928982/TGFsAXMRyal08612MeeuowN.part17.rar
https://sdilej.cz/7928983/TGFsAXMRyal08612MeeuowN.part18.rar

kód:

http://file-share.top/file/392057/tgfsaxmryal08612meeuown-part01-rar
http://file-share.top/file/392060/tgfsaxmryal08612meeuown-part02-rar
http://file-share.top/file/392061/tgfsaxmryal08612meeuown-part03-rar
http://file-share.top/file/392064/tgfsaxmryal08612meeuown-part04-rar
http://file-share.top/file/392066/tgfsaxmryal08612meeuown-part05-rar
http://file-share.top/file/392070/tgfsaxmryal08612meeuown-part06-rar
http://file-share.top/file/392072/tgfsaxmryal08612meeuown-part07-rar
http://file-share.top/file/392074/tgfsaxmryal08612meeuown-part08-rar
http://file-share.top/file/392077/tgfsaxmryal08612meeuown-part09-rar
http://file-share.top/file/392079/tgfsaxmryal08612meeuown-part10-rar
http://file-share.top/file/392081/tgfsaxmryal08612meeuown-part11-rar
http://file-share.top/file/392083/tgfsaxmryal08612meeuown-part12-rar
http://file-share.top/file/392086/tgfsaxmryal08612meeuown-part13-rar
http://file-share.top/file/392088/tgfsaxmryal08612meeuown-part14-rar
http://file-share.top/file/392091/tgfsaxmryal08612meeuown-part15-rar
http://file-share.top/file/392094/tgfsaxmryal08612meeuown-part16-rar
http://file-share.top/file/392097/tgfsaxmryal08612meeuown-part17-rar
http://file-share.top/file/392098/tgfsaxmryal08612meeuown-part18-rar

Upload 3% na opravu dat

no pass
Návrat hore Goto down
Zobrazit informácie o autorovi
 
Now You See Me 2 / Podfukáři 2 (2016)
Zobraziť predchádzajúcu tému Zobraziť nasledujúcu tému Návrat hore 
Strana 1 z 1

Povolenie tohoto fóra:Nemôžete odpovedať na témy v tomto fóre.
Warforum :: Sťahuj :: FILMY-
Prejdi na: