Warforum

stahuj.forumonline.biz
 
DomovFAQHľadaťRegistráciaZoznam užívateľovUžívateľské skupinyPrihlásenie

Share | 
 

 The Conjuring 2 / V zajetí démonů 2 (2016)

Zobraziť predchádzajúcu tému Zobraziť nasledujúcu tému Goto down 
AutorSpráva
Jack86



Počet príspevkov : 110
Registration date : 10.02.2010

OdoslaťPredmet: The Conjuring 2 / V zajetí démonů 2 (2016)   Ne august 28, 2016 7:40 pm





kód:

http://www.csfd.cz/film/366867-v-zajeti-demonu-2/prehled/
http://www.imdb.com/title/tt3065204/


[size=140]The.Conjuring.2.2016.1080p.BluRay.x264-SPARKS + titulky[/size]


Audio: EN
Titulky: CZ


kód:
The.Conjuring.2.2016.1080p.BluRay.x264-SPARKS
Format                      : Matroska
Format version              : Version 4 / Version 2
File size                  : 8.74 GiB
Duration                    : 2 h 13 min
Overall bit rate            : 9 351 kb/s
Encoded date                : UTC 2016-08-26 21:47:31
Writing application        : mkvmerge v8.3.0 ('Over the Horizon') 64bit
Writing library            : libebml v1.3.1 + libmatroska v1.4.2

Video
ID                          : 1
Format                      : AVC
Format/Info                : Advanced Video Codec
Format profile              : High@L4.1
Format settings, CABAC      : Yes
Format settings, ReFrames  : 5 frames
Codec ID                    : V_MPEG4/ISO/AVC
Duration                    : 2 h 13 min
Bit rate                    : 8 711 kb/s
Width                      : 1 920 pixels
Height                      : 800 pixels
Display aspect ratio        : 2.40:1
Frame rate mode            : Constant
Frame rate                  : 23.976 FPS
Color space                : YUV
Chroma subsampling          : 4:2:0
Bit depth                  : 8 bits
Scan type                  : Progressive
Bits/(Pixel*Frame)          : 0.237
Stream size                : 8.14 GiB (93%)
Writing library            : x264 core 148 r2692 64f4e24
Encoding settings          : cabac=1 / ref=5 / deblock=1:0:0 / analyse=0x3:0x133 / me=umh / subme=7 / psy=1 / psy_rd=1.00:0.00 / mixed_ref=1 / me_range=16 / chroma_me=1 / trellis=1 / 8x8dct=1 / cqm=0 / deadzone=21,11 / fast_pskip=0 / chroma_qp_offset=-2 / threads=25 / lookahead_threads=4 / sliced_threads=0 / nr=0 / decimate=1 / interlaced=0 / bluray_compat=0 / constrained_intra=0 / bframes=3 / b_pyramid=2 / b_adapt=1 / b_bias=0 / direct=1 / weightb=1 / open_gop=0 / weightp=2 / keyint=250 / keyint_min=23 / scenecut=40 / intra_refresh=0 / rc_lookahead=40 / rc=2pass / mbtree=1 / bitrate=8711 / ratetol=1.0 / qcomp=0.60 / qpmin=0 / qpmax=69 / qpstep=4 / cplxblur=20.0 / qblur=0.5 / ip_ratio=1.40 / aq=1:1.00
Language                    : English
Default                    : Yes
Forced                      : No

Audio
ID                          : 2
Format                      : AC-3
Format/Info                : Audio Coding 3
Mode extension              : CM (complete main)
Format settings, Endianness : Big
Codec ID                    : A_AC3
Duration                    : 2 h 13 min
Bit rate mode              : Constant
Bit rate                    : 640 kb/s
Channel(s)                  : 6 channels
Channel positions          : Front: L C R, Side: L R, LFE
Sampling rate              : 48.0 kHz
Frame rate                  : 31.250 FPS (1536 spf)
Compression mode            : Lossy
Stream size                : 613 MiB (7%)
Language                    : English
Default                    : Yes
Forced                      : No

Menu
00:00:00.000                : en:00:00:00.000
00:08:24.671                : en:00:08:24.671
00:18:40.703                : en:00:18:40.703
00:28:34.212                : en:00:28:34.212
00:40:01.399                : en:00:40:01.399
00:48:46.841                : en:00:48:46.841
01:02:14.314                : en:01:02:14.314
01:09:29.665                : en:01:09:29.665
01:21:55.869                : en:01:21:55.869
01:29:26.486                : en:01:29:26.486
01:38:53.469                : en:01:38:53.469
01:48:15.364                : en:01:48:15.364
02:03:10.508                : en:02:03:10.508
02:07:36.816                : en:02:07:36.816

kód:

http://www.fastshare.cz/6404279/sksyrb08612grnct.part1.rar
http://www.fastshare.cz/6404290/sksyrb08612grnct.part2.rar
http://www.fastshare.cz/6404298/sksyrb08612grnct.part3.rar
http://www.fastshare.cz/6404313/sksyrb08612grnct.part4.rar
http://www.fastshare.cz/6404315/sksyrb08612grnct.part5.rar

kód:

https://sdilej.cz/7927802/SKSyRB08612grnCT.part1.rar
https://sdilej.cz/7927804/SKSyRB08612grnCT.part2.rar
https://sdilej.cz/7927806/SKSyRB08612grnCT.part3.rar
https://sdilej.cz/7927807/SKSyRB08612grnCT.part5.rar
https://sdilej.cz/7927808/SKSyRB08612grnCT.part4.rar

kód:

http://file-share.top/file/390941/sksyrb08612grnct-part1-rar
http://file-share.top/file/390942/sksyrb08612grnct-part2-rar
http://file-share.top/file/390943/sksyrb08612grnct-part3-rar
http://file-share.top/file/390944/sksyrb08612grnct-part4-rar
http://file-share.top/file/390945/sksyrb08612grnct-part5-rar


Upload 3% na opravu dat

no pass
Návrat hore Goto down
Zobrazit informácie o autorovi
Jack86



Počet príspevkov : 110
Registration date : 10.02.2010

OdoslaťPredmet: Re: The Conjuring 2 / V zajetí démonů 2 (2016)   Št september 01, 2016 2:45 am





kód:

http://www.csfd.cz/film/366867-v-zajeti-demonu-2/prehled/
http://www.imdb.com/title/tt3065204/


[size=140]The.Conjuring.2.2016.1080p.BluRay.x264.TrueHD.7.1.Atmos-FGT + titulky[/size]


Audio: EN
Titulky: CZ


kód:
The.Conjuring.2.2016.1080p.BluRay.x264.TrueHD.7.1.Atmos-FGT
Format                      : Matroska
Format version              : Version 4 / Version 2
File size                  : 12.5 GiB
Duration                    : 2 h 13 min
Overall bit rate mode      : Variable
Overall bit rate            : 13.4 Mb/s
Movie name                  : The.Conjuring.2.2016.1080p.BluRay.x264.TrueHD.7.1.Atmos-FGT
Encoded date                : UTC 2016-08-29 07:04:09
Writing application        : mkvmerge v9.4.0 ('Knurl') 64bit
Writing library            : libebml v1.3.4 + libmatroska v1.4.5
Cover                      : Yes
Attachments                : small_cover.jpg / small_cover_land.jpg / cover.jpg / cover_land.jpg

Video
ID                          : 1
Format                      : AVC
Format/Info                : Advanced Video Codec
Format profile              : High@L4.1
Format settings, CABAC      : Yes
Format settings, ReFrames  : 5 frames
Codec ID                    : V_MPEG4/ISO/AVC
Duration                    : 2 h 13 min
Nominal bit rate            : 8 711 kb/s
Width                      : 1 920 pixels
Height                      : 800 pixels
Display aspect ratio        : 2.40:1
Frame rate mode            : Constant
Frame rate                  : 23.976 FPS
Color space                : YUV
Chroma subsampling          : 4:2:0
Bit depth                  : 8 bits
Scan type                  : Progressive
Bits/(Pixel*Frame)          : 0.237
Title                      : The.Conjuring.2.2016.1080p.BluRay.x264.TrueHD.7.1.Atmos-FGT
Writing library            : x264 core 148 r2692 64f4e24
Encoding settings          : cabac=1 / ref=5 / deblock=1:0:0 / analyse=0x3:0x133 / me=umh / subme=7 / psy=1 / psy_rd=1.00:0.00 / mixed_ref=1 / me_range=16 / chroma_me=1 / trellis=1 / 8x8dct=1 / cqm=0 / deadzone=21,11 / fast_pskip=0 / chroma_qp_offset=-2 / threads=25 / lookahead_threads=4 / sliced_threads=0 / nr=0 / decimate=1 / interlaced=0 / bluray_compat=0 / constrained_intra=0 / bframes=3 / b_pyramid=2 / b_adapt=1 / b_bias=0 / direct=1 / weightb=1 / open_gop=0 / weightp=2 / keyint=250 / keyint_min=23 / scenecut=40 / intra_refresh=0 / rc_lookahead=40 / rc=2pass / mbtree=1 / bitrate=8711 / ratetol=1.0 / qcomp=0.60 / qpmin=0 / qpmax=69 / qpstep=4 / cplxblur=20.0 / qblur=0.5 / ip_ratio=1.40 / aq=1:1.00
Language                    : English
Default                    : Yes
Forced                      : No

Audio #1
ID                          : 2
Format                      : Atmos / TrueHD
Codec ID                    : A_TRUEHD
Bit rate mode              : Variable
Maximum bit rate            : 8 076 kb/s
Channel(s)                  : Object Based / 8 channels
Channel positions          : Object Based / Front: L C R, Side: L R, Back: L R, LFE
Sampling rate              :  / 48.0 kHz
Frame rate                  : 1 200.000 FPS (40 spf)
Compression mode            : Lossless
Title                      : The.Conjuring.2.2016.1080p.BluRay.x264.TrueHD.7.1.Atmos-FGT
Language                    : English
Default                    : Yes
Forced                      : No

Audio #2
ID                          : 3
Format                      : AC-3
Format/Info                : Audio Coding 3
Mode extension              : CM (complete main)
Format settings, Endianness : Big
Codec ID                    : A_AC3
Duration                    : 2 h 13 min
Bit rate mode              : Constant
Bit rate                    : 640 kb/s
Channel(s)                  : 6 channels
Channel positions          : Front: L C R, Side: L R, LFE
Sampling rate              : 48.0 kHz
Frame rate                  : 31.250 FPS (1536 spf)
Compression mode            : Lossy
Stream size                : 613 MiB (5%)
Title                      : The.Conjuring.2.2016.1080p.BluRay.x264.TrueHD.7.1.Atmos-FGT
Language                    : English
Default                    : No
Forced                      : No

Menu
00:00:00.000                : en:00:00:00.000
00:08:24.671                : en:00:08:24.671
00:18:40.703                : en:00:18:40.703
00:28:34.212                : en:00:28:34.212
00:40:01.399                : en:00:40:01.399
00:48:46.841                : en:00:48:46.841
01:02:14.314                : en:01:02:14.314
01:09:29.665                : en:01:09:29.665
01:21:55.869                : en:01:21:55.869
01:29:26.486                : en:01:29:26.486
01:38:53.469                : en:01:38:53.469
01:48:15.364                : en:01:48:15.364
02:03:10.508                : en:02:03:10.508
02:07:36.816                : en:02:07:36.816

kód:

http://www.fastshare.cz/6418458/tgfdhrtyau080161022gnrnct.part1.rar
http://www.fastshare.cz/6418473/tgfdhrtyau080161022gnrnct.part2.rar
http://www.fastshare.cz/6418483/tgfdhrtyau080161022gnrnct.part3.rar
http://www.fastshare.cz/6418500/tgfdhrtyau080161022gnrnct.part4.rar
http://www.fastshare.cz/6418520/tgfdhrtyau080161022gnrnct.part5.rar
http://www.fastshare.cz/6418540/tgfdhrtyau080161022gnrnct.part6.rar
http://www.fastshare.cz/6418553/tgfdhrtyau080161022gnrnct.part7.rar

kód:

https://sdilej.cz/7929642/TGFDHrTyau080161022gnrnCT.part1.rar
https://sdilej.cz/7929645/TGFDHrTyau080161022gnrnCT.part2.rar
https://sdilej.cz/7929646/TGFDHrTyau080161022gnrnCT.part3.rar
https://sdilej.cz/7929650/TGFDHrTyau080161022gnrnCT.part6.rar
https://sdilej.cz/7929651/TGFDHrTyau080161022gnrnCT.part4.rar
https://sdilej.cz/7929654/TGFDHrTyau080161022gnrnCT.part5.rar
https://sdilej.cz/7929657/TGFDHrTyau080161022gnrnCT.part7.rar

kód:

http://file-share.top/file/392786/tgfdhrtyau080161022gnrnct-part1-rar
http://file-share.top/file/392787/tgfdhrtyau080161022gnrnct-part2-rar
http://file-share.top/file/392791/tgfdhrtyau080161022gnrnct-part3-rar
http://file-share.top/file/392792/tgfdhrtyau080161022gnrnct-part4-rar
http://file-share.top/file/392797/tgfdhrtyau080161022gnrnct-part5-rar
http://file-share.top/file/392801/tgfdhrtyau080161022gnrnct-part6-rar
http://file-share.top/file/392802/tgfdhrtyau080161022gnrnct-part7-rar

[size=140]The.Conjuring.2.2016.1080p.BluRay.x264.DTS-HD.MA.7.1-FGT + titulky[/size]


Audio: EN
Titulky: CZ


kód:
The.Conjuring.2.2016.1080p.BluRay.x264.DTS-HD.MA.7.1-FGT
Format                      : Matroska
Format version              : Version 4 / Version 2
File size                  : 11.4 GiB
Duration                    : 2 h 13 min
Overall bit rate            : 12.2 Mb/s
Movie name                  : The.Conjuring.2.2016.1080p.BluRay.x264.DTS-HD.MA.7.1-FGT
Encoded date                : UTC 2016-08-29 07:06:31
Writing application        : mkvmerge v9.4.0 ('Knurl') 64bit
Writing library            : libebml v1.3.4 + libmatroska v1.4.5
Cover                      : Yes
Attachments                : small_cover.jpg / small_cover_land.jpg / cover.jpg / cover_land.jpg

Video
ID                          : 1
Format                      : AVC
Format/Info                : Advanced Video Codec
Format profile              : High@L4.1
Format settings, CABAC      : Yes
Format settings, ReFrames  : 5 frames
Codec ID                    : V_MPEG4/ISO/AVC
Duration                    : 2 h 13 min
Nominal bit rate            : 8 711 kb/s
Width                      : 1 920 pixels
Height                      : 800 pixels
Display aspect ratio        : 2.40:1
Frame rate mode            : Constant
Frame rate                  : 23.976 FPS
Color space                : YUV
Chroma subsampling          : 4:2:0
Bit depth                  : 8 bits
Scan type                  : Progressive
Bits/(Pixel*Frame)          : 0.237
Title                      : The.Conjuring.2.2016.1080p.BluRay.x264.DTS-HD.MA.7.1-FGT
Writing library            : x264 core 148 r2692 64f4e24
Encoding settings          : cabac=1 / ref=5 / deblock=1:0:0 / analyse=0x3:0x133 / me=umh / subme=7 / psy=1 / psy_rd=1.00:0.00 / mixed_ref=1 / me_range=16 / chroma_me=1 / trellis=1 / 8x8dct=1 / cqm=0 / deadzone=21,11 / fast_pskip=0 / chroma_qp_offset=-2 / threads=25 / lookahead_threads=4 / sliced_threads=0 / nr=0 / decimate=1 / interlaced=0 / bluray_compat=0 / constrained_intra=0 / bframes=3 / b_pyramid=2 / b_adapt=1 / b_bias=0 / direct=1 / weightb=1 / open_gop=0 / weightp=2 / keyint=250 / keyint_min=23 / scenecut=40 / intra_refresh=0 / rc_lookahead=40 / rc=2pass / mbtree=1 / bitrate=8711 / ratetol=1.0 / qcomp=0.60 / qpmin=0 / qpmax=69 / qpstep=4 / cplxblur=20.0 / qblur=0.5 / ip_ratio=1.40 / aq=1:1.00
Language                    : English
Default                    : Yes
Forced                      : No

Audio
ID                          : 2
Format                      : DTS
Format/Info                : Digital Theater Systems
Format profile              : MA / Core
Mode                        : 16
Format settings, Endianness : Big
Codec ID                    : A_DTS
Duration                    : 2 h 13 min
Bit rate mode              : Variable / Constant
Bit rate                    : Unknown / 1 509 kb/s
Channel(s)                  : 8 channels / 6 channels
Channel positions          : Front: L C R, Side: L R, Back: L R, LFE / Front: L C R, Side: L R, LFE
Sampling rate              : 48.0 kHz
Frame rate                  : 93.750 FPS (512 spf)
Bit depth                  : 24 bits
Compression mode            : Lossless / Lossy
Title                      : The.Conjuring.2.2016.1080p.BluRay.x264.DTS-HD.MA.7.1-FGT
Language                    : English
Default                    : Yes
Forced                      : No

Menu
00:00:00.000                : en:00:00:00.000
00:08:24.671                : en:00:08:24.671
00:18:40.703                : en:00:18:40.703
00:28:34.212                : en:00:28:34.212
00:40:01.399                : en:00:40:01.399
00:48:46.841                : en:00:48:46.841
01:02:14.314                : en:01:02:14.314
01:09:29.665                : en:01:09:29.665
01:21:55.869                : en:01:21:55.869
01:29:26.486                : en:01:29:26.486
01:38:53.469                : en:01:38:53.469
01:48:15.364                : en:01:48:15.364
02:03:10.508                : en:02:03:10.508
02:07:36.816                : en:02:07:36.816

kód:

http://www.fastshare.cz/6422262/tgfmhdyu080161022grjce.part1.rar
http://www.fastshare.cz/6422265/tgfmhdyu080161022grjce.part2.rar
http://www.fastshare.cz/6422270/tgfmhdyu080161022grjce.part3.rar
http://www.fastshare.cz/6422274/tgfmhdyu080161022grjce.part4.rar
http://www.fastshare.cz/6422281/tgfmhdyu080161022grjce.part5.rar
http://www.fastshare.cz/6422285/tgfmhdyu080161022grjce.part6.rar

kód:

https://sdilej.cz/7930083/TGFMHDyu080161022grjCe.part1.rar
https://sdilej.cz/7930084/TGFMHDyu080161022grjCe.part2.rar
https://sdilej.cz/7930087/TGFMHDyu080161022grjCe.part3.rar
https://sdilej.cz/7930088/TGFMHDyu080161022grjCe.part4.rar
https://sdilej.cz/7930089/TGFMHDyu080161022grjCe.part5.rar
https://sdilej.cz/7930090/TGFMHDyu080161022grjCe.part6.rar

kód:

http://file-share.top/file/393352/tgfmhdyu080161022grjce-part1-rar
http://file-share.top/file/393356/tgfmhdyu080161022grjce-part2-rar
http://file-share.top/file/393359/tgfmhdyu080161022grjce-part3-rar
http://file-share.top/file/393362/tgfmhdyu080161022grjce-part4-rar
http://file-share.top/file/393364/tgfmhdyu080161022grjce-part5-rar
http://file-share.top/file/393365/tgfmhdyu080161022grjce-part6-rar


Upload 3% na opravu dat

no pass
Návrat hore Goto down
Zobrazit informácie o autorovi
Jack86



Počet príspevkov : 110
Registration date : 10.02.2010

OdoslaťPredmet: Re: The Conjuring 2 / V zajetí démonů 2 (2016)   Pi september 02, 2016 3:48 am





kód:

http://www.csfd.cz/film/366867-v-zajeti-demonu-2/prehled/
http://www.imdb.com/title/tt3065204/


[size=140]The.Conjuring.2.2016.1080p.BluRay.REMUX.AVC.DTS-HD.MA.TrueHD.7.1.Atmos-FGT + titulky[/size]


Audio: EN
Titulky: CZ


kód:
The.Conjuring.2.2016.1080p.BluRay.REMUX.AVC.DTS-HD.MA.TrueHD.7.1.Atmos-FGT
Format                      : Matroska
Format version              : Version 4 / Version 2
File size                  : 30.2 GiB
Duration                    : 2 h 13 min
Overall bit rate mode      : Variable
Overall bit rate            : 32.3 Mb/s
Movie name                  : The.Conjuring.2.2016.1080p.BluRay.REMUX.AVC.DTS-HD.MA.TrueHD.7.1.Atmos-FGT
Encoded date                : UTC 2016-08-30 05:52:29
Writing application        : mkvmerge v9.4.0 ('Knurl') 64bit
Writing library            : libebml v1.3.4 + libmatroska v1.4.5
Cover                      : Yes
Attachments                : small_cover.jpg / small_cover_land.jpg / cover.jpg / cover_land.jpg

Video
ID                          : 1
Format                      : AVC
Format/Info                : Advanced Video Codec
Format profile              : High@L4.1
Format settings, CABAC      : Yes
Format settings, ReFrames  : 2 frames
Codec ID                    : V_MPEG4/ISO/AVC
Duration                    : 2 h 13 min
Bit rate mode              : Variable
Width                      : 1 920 pixels
Height                      : 1 080 pixels
Display aspect ratio        : 16:9
Frame rate mode            : Constant
Frame rate                  : 23.976 (24000/1001) FPS
Color space                : YUV
Chroma subsampling          : 4:2:0
Bit depth                  : 8 bits
Scan type                  : Progressive
Title                      : The.Conjuring.2.2016.1080p.BluRay.REMUX.AVC.DTS-HD.MA.TrueHD.7.1.Atmos-FGT
Language                    : English
Default                    : No
Forced                      : No

Audio #1
ID                          : 2
Format                      : DTS
Format/Info                : Digital Theater Systems
Format profile              : MA / Core
Mode                        : 16
Format settings, Endianness : Big
Codec ID                    : A_DTS
Duration                    : 2 h 13 min
Bit rate mode              : Variable / Constant
Bit rate                    : Unknown / 1 509 kb/s
Channel(s)                  : 8 channels / 6 channels
Channel positions          : Front: L C R, Side: L R, Back: L R, LFE / Front: L C R, Side: L R, LFE
Sampling rate              : 48.0 kHz
Frame rate                  : 93.750 FPS (512 spf)
Bit depth                  : 24 bits
Compression mode            : Lossless / Lossy
Title                      : The.Conjuring.2.2016.1080p.BluRay.REMUX.AVC.DTS-HD.MA.TrueHD.7.1.Atmos-FGT
Language                    : English
Default                    : Yes
Forced                      : No

Audio #2
ID                          : 3
Format                      : Atmos / TrueHD
Codec ID                    : A_TRUEHD
Bit rate mode              : Variable
Maximum bit rate            : 8 076 kb/s
Channel(s)                  : Object Based / 8 channels
Channel positions          : Object Based / Front: L C R, Side: L R, Back: L R, LFE
Sampling rate              :  / 48.0 kHz
Frame rate                  : 1 200.000 FPS (40 spf)
Compression mode            : Lossless
Title                      : The.Conjuring.2.2016.1080p.BluRay.REMUX.AVC.DTS-HD.MA.TrueHD.7.1.Atmos-FGT
Language                    : English
Default                    : No
Forced                      : No

Audio #3
ID                          : 4
Format                      : AC-3
Format/Info                : Audio Coding 3
Mode extension              : CM (complete main)
Format settings, Endianness : Big
Codec ID                    : A_AC3
Duration                    : 2 h 13 min
Bit rate mode              : Constant
Bit rate                    : 384 kb/s
Channel(s)                  : 6 channels
Channel positions          : Front: L C R, Side: L R, LFE
Sampling rate              : 48.0 kHz
Frame rate                  : 31.250 FPS (1536 spf)
Compression mode            : Lossy
Stream size                : 368 MiB (1%)
Title                      : The.Conjuring.2.2016.1080p.BluRay.REMUX.AVC.DTS-HD.MA.TrueHD.7.1.Atmos-FGT
Language                    : English
Default                    : No
Forced                      : No

Audio #4
ID                          : 5
Format                      : AC-3
Format/Info                : Audio Coding 3
Mode extension              : CM (complete main)
Format settings, Endianness : Big
Codec ID                    : A_AC3
Duration                    : 2 h 13 min
Bit rate mode              : Constant
Bit rate                    : 448 kb/s
Channel(s)                  : 6 channels
Channel positions          : Front: L C R, Side: L R, LFE
Sampling rate              : 48.0 kHz
Frame rate                  : 31.250 FPS (1536 spf)
Compression mode            : Lossy
Stream size                : 429 MiB (1%)
Title                      : The.Conjuring.2.2016.1080p.BluRay.REMUX.AVC.DTS-HD.MA.TrueHD.7.1.Atmos-FGT
Language                    : English
Default                    : No
Forced                      : No

Audio #5
ID                          : 6
Format                      : AC-3
Format/Info                : Audio Coding 3
Mode extension              : CM (complete main)
Format settings, Endianness : Big
Codec ID                    : A_AC3
Duration                    : 2 h 13 min
Bit rate mode              : Constant
Bit rate                    : 448 kb/s
Channel(s)                  : 6 channels
Channel positions          : Front: L C R, Side: L R, LFE
Sampling rate              : 48.0 kHz
Frame rate                  : 31.250 FPS (1536 spf)
Compression mode            : Lossy
Stream size                : 429 MiB (1%)
Title                      : The.Conjuring.2.2016.1080p.BluRay.REMUX.AVC.DTS-HD.MA.TrueHD.7.1.Atmos-FGT
Language                    : French
Default                    : No
Forced                      : No

Audio #6
ID                          : 7
Format                      : AC-3
Format/Info                : Audio Coding 3
Mode extension              : CM (complete main)
Format settings, Endianness : Big
Codec ID                    : A_AC3
Duration                    : 2 h 13 min
Bit rate mode              : Constant
Bit rate                    : 448 kb/s
Channel(s)                  : 6 channels
Channel positions          : Front: L C R, Side: L R, LFE
Sampling rate              : 48.0 kHz
Frame rate                  : 31.250 FPS (1536 spf)
Compression mode            : Lossy
Stream size                : 429 MiB (1%)
Title                      : The.Conjuring.2.2016.1080p.BluRay.REMUX.AVC.DTS-HD.MA.TrueHD.7.1.Atmos-FGT
Language                    : Spanish
Default                    : No
Forced                      : No

Audio #7
ID                          : 8
Format                      : AC-3
Format/Info                : Audio Coding 3
Mode extension              : CM (complete main)
Format settings, Endianness : Big
Codec ID                    : A_AC3
Duration                    : 2 h 13 min
Bit rate mode              : Constant
Bit rate                    : 448 kb/s
Channel(s)                  : 6 channels
Channel positions          : Front: L C R, Side: L R, LFE
Sampling rate              : 48.0 kHz
Frame rate                  : 31.250 FPS (1536 spf)
Compression mode            : Lossy
Stream size                : 429 MiB (1%)
Title                      : The.Conjuring.2.2016.1080p.BluRay.REMUX.AVC.DTS-HD.MA.TrueHD.7.1.Atmos-FGT
Language                    : Portuguese
Default                    : No
Forced                      : No

Text #1
ID                          : 9
Format                      : PGS
Muxing mode                : zlib
Codec ID                    : S_HDMV/PGS
Codec ID/Info              : Picture based subtitle format used on BDs/HD-DVDs
Title                      : English-PGS
Language                    : English
Default                    : No
Forced                      : No

Text #2
ID                          : 10
Format                      : PGS
Muxing mode                : zlib
Codec ID                    : S_HDMV/PGS
Codec ID/Info              : Picture based subtitle format used on BDs/HD-DVDs
Title                      : French-PGS
Language                    : French
Default                    : No
Forced                      : No

Text #3
ID                          : 11
Format                      : PGS
Muxing mode                : zlib
Codec ID                    : S_HDMV/PGS
Codec ID/Info              : Picture based subtitle format used on BDs/HD-DVDs
Title                      : Spanish-PGS
Language                    : Spanish
Default                    : No
Forced                      : No

Text #4
ID                          : 12
Format                      : PGS
Muxing mode                : zlib
Codec ID                    : S_HDMV/PGS
Codec ID/Info              : Picture based subtitle format used on BDs/HD-DVDs
Title                      : Portuguese-PGS
Language                    : Portuguese
Default                    : No
Forced                      : No

Menu
00:00:00.000                : en:Chapter 01
00:08:24.545                : en:Chapter 02
00:18:40.452                : en:Chapter 03
00:28:34.170                : en:Chapter 04
00:40:01.065                : en:Chapter 05
00:48:46.840                : en:Chapter 06
01:02:14.313                : en:Chapter 07
01:09:29.665                : en:Chapter 08
01:21:55.619                : en:Chapter 09
01:29:26.486                : en:Chapter 10
01:38:53.469                : en:Chapter 11
01:48:15.363                : en:Chapter 12
02:03:10.508                : en:Chapter 13
02:07:36.690                : en:Chapter 14

kód:

http://www.fastshare.cz/6424500/tgfdhtahsdxmryarb080161022gnjnc.part01.rar
http://www.fastshare.cz/6424510/tgfdhtahsdxmryarb080161022gnjnc.part02.rar
http://www.fastshare.cz/6424512/tgfdhtahsdxmryarb080161022gnjnc.part03.rar
http://www.fastshare.cz/6424522/tgfdhtahsdxmryarb080161022gnjnc.part04.rar
http://www.fastshare.cz/6424526/tgfdhtahsdxmryarb080161022gnjnc.part05.rar
http://www.fastshare.cz/6424530/tgfdhtahsdxmryarb080161022gnjnc.part06.rar
http://www.fastshare.cz/6424533/tgfdhtahsdxmryarb080161022gnjnc.part07.rar
http://www.fastshare.cz/6424541/tgfdhtahsdxmryarb080161022gnjnc.part08.rar
http://www.fastshare.cz/6424546/tgfdhtahsdxmryarb080161022gnjnc.part09.rar
http://www.fastshare.cz/6424551/tgfdhtahsdxmryarb080161022gnjnc.part10.rar
http://www.fastshare.cz/6424555/tgfdhtahsdxmryarb080161022gnjnc.part11.rar
http://www.fastshare.cz/6424560/tgfdhtahsdxmryarb080161022gnjnc.part12.rar
http://www.fastshare.cz/6424566/tgfdhtahsdxmryarb080161022gnjnc.part13.rar
http://www.fastshare.cz/6424569/tgfdhtahsdxmryarb080161022gnjnc.part14.rar
http://www.fastshare.cz/6424574/tgfdhtahsdxmryarb080161022gnjnc.part15.rar
http://www.fastshare.cz/6424577/tgfdhtahsdxmryarb080161022gnjnc.part16.rar

kód:

https://sdilej.cz/7930692/TGFDHTAHSDXMRyaRB080161022gnjnC.part01.rar
https://sdilej.cz/7930694/TGFDHTAHSDXMRyaRB080161022gnjnC.part03.rar
https://sdilej.cz/7930695/TGFDHTAHSDXMRyaRB080161022gnjnC.part02.rar
https://sdilej.cz/7930698/TGFDHTAHSDXMRyaRB080161022gnjnC.part04.rar
https://sdilej.cz/7930700/TGFDHTAHSDXMRyaRB080161022gnjnC.part06.rar
https://sdilej.cz/7930703/TGFDHTAHSDXMRyaRB080161022gnjnC.part07.rar
https://sdilej.cz/7930708/TGFDHTAHSDXMRyaRB080161022gnjnC.part08.rar
https://sdilej.cz/7930714/TGFDHTAHSDXMRyaRB080161022gnjnC.part11.rar
https://sdilej.cz/7930718/TGFDHTAHSDXMRyaRB080161022gnjnC.part05.rar
https://sdilej.cz/7930723/TGFDHTAHSDXMRyaRB080161022gnjnC.part09.rar
https://sdilej.cz/7930730/TGFDHTAHSDXMRyaRB080161022gnjnC.part10.rar
https://sdilej.cz/7930735/TGFDHTAHSDXMRyaRB080161022gnjnC.part12.rar
https://sdilej.cz/7930741/TGFDHTAHSDXMRyaRB080161022gnjnC.part13.rar
https://sdilej.cz/7930744/TGFDHTAHSDXMRyaRB080161022gnjnC.part14.rar
https://sdilej.cz/7930747/TGFDHTAHSDXMRyaRB080161022gnjnC.part16.rar
https://sdilej.cz/7930885/TGFDHTAHSDXMRyaRB080161022gnjnC.part15.rar

kód:

http://file-share.top/file/394121/tgfdhtahsdxmryarb080161022gnjnc-part01-rar
http://file-share.top/file/394131/tgfdhtahsdxmryarb080161022gnjnc-part02-rar
http://file-share.top/file/394132/tgfdhtahsdxmryarb080161022gnjnc-part03-rar
http://file-share.top/file/394134/tgfdhtahsdxmryarb080161022gnjnc-part04-rar
http://file-share.top/file/394137/tgfdhtahsdxmryarb080161022gnjnc-part05-rar
http://file-share.top/file/394138/tgfdhtahsdxmryarb080161022gnjnc-part06-rar
http://file-share.top/file/394140/tgfdhtahsdxmryarb080161022gnjnc-part07-rar
http://file-share.top/file/394141/tgfdhtahsdxmryarb080161022gnjnc-part08-rar
http://file-share.top/file/394146/tgfdhtahsdxmryarb080161022gnjnc-part09-rar
http://file-share.top/file/394147/tgfdhtahsdxmryarb080161022gnjnc-part10-rar
http://file-share.top/file/394148/tgfdhtahsdxmryarb080161022gnjnc-part11-rar
http://file-share.top/file/394150/tgfdhtahsdxmryarb080161022gnjnc-part12-rar
http://file-share.top/file/394152/tgfdhtahsdxmryarb080161022gnjnc-part13-rar
http://file-share.top/file/394155/tgfdhtahsdxmryarb080161022gnjnc-part14-rar
http://file-share.top/file/394157/tgfdhtahsdxmryarb080161022gnjnc-part15-rar
http://file-share.top/file/394158/tgfdhtahsdxmryarb080161022gnjnc-part16-rar


Upload 3% na opravu dat

no pass
Návrat hore Goto down
Zobrazit informácie o autorovi
Sponsored content




OdoslaťPredmet: Re: The Conjuring 2 / V zajetí démonů 2 (2016)   

Návrat hore Goto down
 
The Conjuring 2 / V zajetí démonů 2 (2016)
Zobraziť predchádzajúcu tému Zobraziť nasledujúcu tému Návrat hore 
Strana 1 z 1

Povolenie tohoto fóra:Nemôžete odpovedať na témy v tomto fóre.
Warforum :: Sťahuj :: FILMY-
Prejdi na: