Warforum

stahuj.forumonline.biz
 
DomovFAQHľadaťRegistráciaZoznam užívateľovUžívateľské skupinyPrihlásenie

Share | 
 

 Me Before You / Než jsem tě poznala (2016)

Zobraziť predchádzajúcu tému Zobraziť nasledujúcu tému Goto down 
AutorSpráva
Jack86



Počet príspevkov : 110
Registration date : 10.02.2010

OdoslaťPredmet: Me Before You / Než jsem tě poznala (2016)   St august 17, 2016 11:23 am




kód:

http://www.csfd.cz/film/407687-nez-jsem-te-poznala/prehled/
http://www.imdb.com/title/tt2674426/combined


[size=140]Me.Before.You.2016.1080p.BluRay.x264-DRONES + titulky[/size]


Audio: EN
Titulky: CZ


kód:
Me.Before.You.2016.1080p.BluRay.x264-DRONES
Format                      : Matroska
Format version              : Version 4 / Version 2
File size                  : 7.65 GiB
Duration                    : 1 h 38 min
Overall bit rate            : 11.1 Mb/s
Encoded date                : UTC 2016-08-09 16:22:20
Writing application        : mkvmerge v8.3.0 ('Over the Horizon') 64bit
Writing library            : libebml v1.3.1 + libmatroska v1.4.2

Video
ID                          : 1
Format                      : AVC
Format/Info                : Advanced Video Codec
Format profile              : High@L4.1
Format settings, CABAC      : Yes
Format settings, ReFrames  : 5 frames
Codec ID                    : V_MPEG4/ISO/AVC
Duration                    : 1 h 38 min
Bit rate                    : 9 593 kb/s
Width                      : 1 920 pixels
Height                      : 808 pixels
Display aspect ratio        : 2.40:1
Frame rate mode            : Constant
Frame rate                  : 23.976 FPS
Color space                : YUV
Chroma subsampling          : 4:2:0
Bit depth                  : 8 bits
Scan type                  : Progressive
Bits/(Pixel*Frame)          : 0.258
Stream size                : 6.61 GiB (86%)
Writing library            : x264 core 148 r2692 64f4e24
Encoding settings          : cabac=1 / ref=5 / deblock=1:0:0 / analyse=0x3:0x133 / me=umh / subme=7 / psy=1 / psy_rd=1.00:0.00 / mixed_ref=1 / me_range=16 / chroma_me=1 / trellis=1 / 8x8dct=1 / cqm=0 / deadzone=21,11 / fast_pskip=0 / chroma_qp_offset=-2 / threads=25 / lookahead_threads=4 / sliced_threads=0 / nr=0 / decimate=1 / interlaced=0 / bluray_compat=0 / constrained_intra=0 / bframes=3 / b_pyramid=2 / b_adapt=1 / b_bias=0 / direct=1 / weightb=1 / open_gop=0 / weightp=2 / keyint=250 / keyint_min=23 / scenecut=40 / intra_refresh=0 / rc_lookahead=40 / rc=2pass / mbtree=1 / bitrate=9593 / ratetol=1.0 / qcomp=0.60 / qpmin=0 / qpmax=69 / qpstep=4 / cplxblur=20.0 / qblur=0.5 / ip_ratio=1.40 / aq=1:1.00
Language                    : English
Default                    : Yes
Forced                      : No

Audio
ID                          : 2
Format                      : DTS
Format/Info                : Digital Theater Systems
Mode                        : 16
Format settings, Endianness : Big
Codec ID                    : A_DTS
Duration                    : 1 h 38 min
Bit rate mode              : Constant
Bit rate                    : 1 509 kb/s
Channel(s)                  : 6 channels
Channel positions          : Front: L C R, Side: L R, LFE
Sampling rate              : 48.0 kHz
Frame rate                  : 93.750 FPS (512 spf)
Bit depth                  : 24 bits
Compression mode            : Lossy
Stream size                : 1.04 GiB (14%)
Language                    : English
Default                    : Yes
Forced                      : No

Menu
00:00:00.000                : en:00:00:00.000
00:07:14.225                : en:00:07:14.225
00:12:38.800                : en:00:12:38.800
00:20:08.457                : en:00:20:08.457
00:24:32.179                : en:00:24:32.179
00:31:37.854                : en:00:31:37.854
00:39:52.140                : en:00:39:52.140
00:45:29.101                : en:00:45:29.101
00:51:37.511                : en:00:51:37.511
00:55:39.628                : en:00:55:39.628
00:58:43.019                : en:00:58:43.019
01:06:42.207                : en:01:06:42.207
01:10:27.682                : en:01:10:27.682
01:16:06.228                : en:01:16:06.228
01:19:55.165                : en:01:19:55.165
01:29:35.036                : en:01:29:35.036

kód:

http://www.fastshare.cz/6337259/sndyar0861uoefbm.part1.rar
http://www.fastshare.cz/6337321/sndyar0861uoefbm.part2.rar
http://www.fastshare.cz/6337379/sndyar0861uoefbm.part3.rar
http://www.fastshare.cz/6337432/sndyar0861uoefbm.part4.rar
http://www.fastshare.cz/6337437/sndyar0861uoefbm.part5.rar

kód:

https://sdilej.cz/7920150/SNDyaR0861uoefBM.part1.rar
https://sdilej.cz/7920154/SNDyaR0861uoefBM.part2.rar
https://sdilej.cz/7920158/SNDyaR0861uoefBM.part4.rar
https://sdilej.cz/7920159/SNDyaR0861uoefBM.part5.rar
https://sdilej.cz/7920177/SNDyaR0861uoefBM.part3.rar


Upload 3% na opravu dat

no pass
Návrat hore Goto down
Zobrazit informácie o autorovi
 
Me Before You / Než jsem tě poznala (2016)
Zobraziť predchádzajúcu tému Zobraziť nasledujúcu tému Návrat hore 
Strana 1 z 1

Povolenie tohoto fóra:Nemôžete odpovedať na témy v tomto fóre.
Warforum :: Sťahuj :: FILMY-
Prejdi na: