Warforum

stahuj.forumonline.biz
 
DomovFAQHľadaťRegistráciaZoznam užívateľovUžívateľské skupinyPrihlásenie

Share | 
 

 Star Trek / Star Trek (2009)

Zobraziť predchádzajúcu tému Zobraziť nasledujúcu tému Goto down 
AutorSpráva
Jack86



Počet príspevkov : 110
Registration date : 10.02.2010

OdoslaťPredmet: Star Trek / Star Trek (2009)   Po august 08, 2016 6:51 pm




kód:

http://www.csfd.cz/film/222972-star-trek/prehled/
http://www.imdb.com/title/tt0796366/combined


[size=140]Star.Trek.2009.720p.BluRay.x264.DTS.AC3.CZ.EN-SiViN[/size]


Audio: EN/CZ
Titulky: CZ


kód:
Star.Trek.2009.720p.BluRay.x264.DTS.AC3.CZ.EN-SiViN
Format                      : Matroska
Format version              : Version 2
File size                  : 7.45 GiB
Duration                    : 2h 6mn
Overall bit rate            : 8 408 Kbps
Encoded date                : UTC 2009-10-23 06:40:53
Writing application        : mkvmerge v2.9.8 ('C'est le bon') built on Aug 13 2009 12:49:06
Writing library            : libebml v0.7.7 + libmatroska v0.8.1

Video
ID                          : 1
Format                      : AVC
Format/Info                : Advanced Video Codec
Format profile              : High@L4.1
Format settings, CABAC      : Yes
Format settings, ReFrames  : 8 frames
Codec ID                    : V_MPEG4/ISO/AVC
Duration                    : 2h 6mn
Bit rate                    : 5 643 Kbps
Nominal bit rate            : 5 942 Kbps
Width                      : 1 280 pixels
Height                      : 532 pixels
Display aspect ratio        : 2.40:1
Frame rate mode            : Constant
Frame rate                  : 23.976 fps
Color space                : YUV
Chroma subsampling          : 4:2:0
Bit depth                  : 8 bits
Scan type                  : Progressive
Bits/(Pixel*Frame)          : 0.346
Stream size                : 5.00 GiB (67%)
Writing library            : x264 core 68 r1183M f21daff
Encoding settings          : cabac=1 / ref=8 / deblock=1:-3:-3 / analyse=0x3:0x133 / me=umh / subme=9 / psy_rd=1.0:0.0 / mixed_ref=1 / me_range=32 / chroma_me=1 / trellis=2 / 8x8dct=1 / cqm=0 / deadzone=21,11 / chroma_qp_offset=-2 / threads=24 / nr=0 / decimate=1 / mbaff=0 / bframes=6 / b_pyramid=0 / b_adapt=2 / b_bias=0 / direct=3 / wpredb=1 / keyint=250 / keyint_min=25 / scenecut=40 / rc=2pass / bitrate=5942 / ratetol=1.0 / qcomp=0.60 / qpmin=10 / qpmax=51 / qpstep=4 / cplxblur=20.0 / qblur=0.5 / ip_ratio=1.40 / pb_ratio=1.30 / aq=1:0.80
Language                    : English
Default                    : Yes
Forced                      : No

Audio #1
ID                          : 2
Format                      : AC-3
Format/Info                : Audio Coding 3
Mode extension              : CM (complete main)
Format settings, Endianness : Big
Codec ID                    : A_AC3
Duration                    : 2h 6mn
Bit rate mode              : Constant
Bit rate                    : 640 Kbps
Channel(s)                  : 6 channels
Channel positions          : Front: L C R, Side: L R, LFE
Sampling rate              : 48.0 KHz
Frame rate                  : 31.250 fps (1536 spf)
Compression mode            : Lossy
Stream size                : 581 MiB (8%)
Title                      : Czech 5.1 @ 640 Kbps
Language                    : Czech
Default                    : Yes
Forced                      : No

Audio #2
ID                          : 5
Format                      : AC-3
Format/Info                : Audio Coding 3
Mode extension              : CM (complete main)
Format settings, Endianness : Big
Codec ID                    : A_AC3
Duration                    : 2h 6mn
Bit rate mode              : Constant
Bit rate                    : 448 Kbps
Channel(s)                  : 6 channels
Channel positions          : Front: L C R, Side: L R, LFE
Sampling rate              : 48.0 KHz
Frame rate                  : 31.250 fps (1536 spf)
Compression mode            : Lossy
Stream size                : 406 MiB (5%)
Title                      : English 5.1 @ 448 Kbps
Language                    : English
Default                    : No
Forced                      : No

Audio #3
ID                          : 6
Format                      : DTS
Format/Info                : Digital Theater Systems
Mode                        : 16
Format settings, Endianness : Big
Codec ID                    : A_DTS
Duration                    : 2h 6mn
Bit rate mode              : Constant
Bit rate                    : 1 510 Kbps
Channel(s)                  : 6 channels
Channel positions          : Front: L C R, Side: L R, LFE
Sampling rate              : 48.0 KHz
Frame rate                  : 93.750 fps (512 spf)
Bit depth                  : 24 bits
Compression mode            : Lossy
Stream size                : 1.34 GiB (18%)
Title                      : English DTS @ 1510 Kbps
Language                    : English
Default                    : No
Forced                      : No

Text #1
ID                          : 3
Format                      : UTF-8
Codec ID                    : S_TEXT/UTF8
Codec ID/Info              : UTF-8 Plain Text
Title                      : Czech
Language                    : Czech
Default                    : No
Forced                      : No

Text #2
ID                          : 4
Format                      : UTF-8
Codec ID                    : S_TEXT/UTF8
Codec ID/Info              : UTF-8 Plain Text
Title                      : Slovak
Language                    : Slovak
Default                    : No
Forced                      : No

kód:

http://www.fastshare.cz/6299022/nvs3asdyub0290ktrs.part1.rar
http://www.fastshare.cz/6299028/nvs3asdyub0290ktrs.part2.rar
http://www.fastshare.cz/6299032/nvs3asdyub0290ktrs.part3.rar
http://www.fastshare.cz/6299035/nvs3asdyub0290ktrs.part4.rar

kód:

https://sdilej.cz/7910970/NVS3ASDyuB0290kTrS.part1.rar
https://sdilej.cz/7910974/NVS3ASDyuB0290kTrS.part2.rar
https://sdilej.cz/7910979/NVS3ASDyuB0290kTrS.part3.rar
https://sdilej.cz/7910982/NVS3ASDyuB0290kTrS.part4.rar


Upload 3% na opravu dat

no pass
Návrat hore Goto down
Zobrazit informácie o autorovi
 
Star Trek / Star Trek (2009)
Zobraziť predchádzajúcu tému Zobraziť nasledujúcu tému Návrat hore 
Strana 1 z 1

Povolenie tohoto fóra:Nemôžete odpovedať na témy v tomto fóre.
Warforum :: Sťahuj :: FILMY-
Prejdi na: