Warforum

stahuj.forumonline.biz
 
DomovFAQHľadaťRegistráciaZoznam užívateľovUžívateľské skupinyPrihlásenie

Share | 
 

 Jungle Book, The / Kniha džunglí (2016)

Zobraziť predchádzajúcu tému Zobraziť nasledujúcu tému Goto down 
AutorSpráva
Jack86



Počet príspevkov : 110
Registration date : 10.02.2010

OdoslaťPredmet: Jungle Book, The / Kniha džunglí (2016)   Ne august 07, 2016 5:08 pm




kód:

http://www.csfd.cz/film/369825-kniha-dzungli/prehled/
http://www.imdb.com/title/tt3040964/combined


[size=140]The.Jungle.Book.2016.1080p.BluRay.x264.DTS-FGT + titulky[/size]


Audio: EN
Titulky: CZ


kód:
The.Jungle.Book.2016.1080p.BluRay.x264.DTS-FGT
Format                      : Matroska
Format version              : Version 4 / Version 2
File size                  : 6.81 GiB
Duration                    : 1h 45mn
Overall bit rate            : 9 207 Kbps
Movie name                  : The.Jungle.Book.2016.1080p.BluRay.x264.DTS-FGT
Encoded date                : UTC 2016-08-06 09:49:15
Writing application        : mkvmerge v9.3.1 ('Mask Machine') 64bit
Writing library            : libebml v1.3.4 + libmatroska v1.4.5
Cover                      : Yes
Attachments                : small_cover.jpg / small_cover_land.jpg / cover.jpg / cover_land.jpg

Video
ID                          : 1
Format                      : AVC
Format/Info                : Advanced Video Codec
Format profile              : High@L4.1
Format settings, CABAC      : Yes
Format settings, ReFrames  : 4 frames
Codec ID                    : V_MPEG4/ISO/AVC
Duration                    : 1h 45mn
Bit rate                    : 7 515 Kbps
Width                      : 1 920 pixels
Height                      : 1 040 pixels
Display aspect ratio        : 1.85:1
Frame rate mode            : Constant
Frame rate                  : 23.976 (24000/1001) fps
Color space                : YUV
Chroma subsampling          : 4:2:0
Bit depth                  : 8 bits
Scan type                  : Progressive
Bits/(Pixel*Frame)          : 0.157
Stream size                : 5.56 GiB (82%)
Writing library            : x264 core 148 r2705 3f5ed56
Encoding settings          : cabac=1 / ref=4 / deblock=1:-1:-1 / analyse=0x3:0x113 / me=umh / subme=7 / psy=1 / psy_rd=1.00:0.00 / mixed_ref=1 / me_range=16 / chroma_me=1 / trellis=1 / 8x8dct=1 / cqm=0 / deadzone=21,11 / fast_pskip=0 / chroma_qp_offset=-2 / threads=18 / lookahead_threads=3 / sliced_threads=0 / nr=0 / decimate=1 / interlaced=0 / bluray_compat=0 / constrained_intra=0 / bframes=3 / b_pyramid=2 / b_adapt=1 / b_bias=0 / direct=1 / weightb=1 / open_gop=0 / weightp=2 / keyint=250 / keyint_min=23 / scenecut=40 / intra_refresh=0 / rc_lookahead=40 / rc=crf / mbtree=1 / crf=20.0 / qcomp=0.60 / qpmin=0 / qpmax=69 / qpstep=4 / ip_ratio=1.40 / aq=1:1.00
Language                    : English
Default                    : Yes
Forced                      : No

Audio
ID                          : 2
Format                      : DTS
Format/Info                : Digital Theater Systems
Mode                        : 16
Format settings, Endianness : Big
Codec ID                    : A_DTS
Duration                    : 1h 45mn
Bit rate mode              : Constant
Bit rate                    : 1 509 Kbps
Channel(s)                  : 6 channels
Channel positions          : Front: L C R, Side: L R, LFE
Sampling rate              : 48.0 KHz
Frame rate                  : 93.750 fps (512 spf)
Bit depth                  : 24 bits
Compression mode            : Lossy
Stream size                : 1.12 GiB (16%)
Language                    : English
Default                    : Yes
Forced                      : No

Text
ID                          : 3
Format                      : UTF-8
Codec ID                    : S_TEXT/UTF8
Codec ID/Info              : UTF-8 Plain Text
Language                    : English
Default                    : Yes
Forced                      : No

Menu
00:00:00.000                : en:00:00:00.000
00:00:48.215                : en:00:00:48.215
00:05:15.315                : en:00:05:15.315
00:09:02.459                : en:00:09:02.459
00:12:42.178                : en:00:12:42.178
00:16:34.452                : en:00:16:34.452
00:21:20.029                : en:00:21:20.029
00:27:15.133                : en:00:27:15.133
00:35:04.144                : en:00:35:04.144
00:43:21.724                : en:00:43:21.724
00:48:05.132                : en:00:48:05.132
00:53:29.248                : en:00:53:29.248
00:58:03.271                : en:00:58:03.271
01:05:46.442                : en:01:05:46.442
01:10:35.523                : en:01:10:35.523
01:17:01.325                : en:01:17:01.325
01:20:48.927                : en:01:20:48.927
01:24:46.540                : en:01:24:46.540
01:30:32.969                : en:01:30:32.969
01:35:53.206                : en:01:35:53.206

kód:

http://www.fastshare.cz/6304668/tfdyub0861kblnjet.part1.rar
http://www.fastshare.cz/6304674/tfdyub0861kblnjet.part2.rar
http://www.fastshare.cz/6304683/tfdyub0861kblnjet.part3.rar
http://www.fastshare.cz/6304686/tfdyub0861kblnjet.part4.rar

kód:

https://sdilej.cz/7912767/TFDyuB0861kBlnJeT.part1.rar
https://sdilej.cz/7912768/TFDyuB0861kBlnJeT.part2.rar
https://sdilej.cz/7912770/TFDyuB0861kBlnJeT.part3.rar
https://sdilej.cz/7912774/TFDyuB0861kBlnJeT.part4.rar

[size=140]The.Jungle.Book.2016.1080p.BluRay.x264.DTS-HD.MA.7.1-FGT + titulky[/size]


Audio: EN
Titulky: CZ


kód:
The.Jungle.Book.2016.1080p.BluRay.x264.DTS-HD.MA.7.1-FGT
Format                      : Matroska
Format version              : Version 4 / Version 2
File size                  : 10.5 GiB
Duration                    : 1h 45mn
Overall bit rate            : 14.2 Mbps
Movie name                  : The.Jungle.Book.2016.1080p.BluRay.x264.DTS-HD.MA.7.1-FGT
Encoded date                : UTC 2016-08-06 13:23:49
Writing application        : mkvmerge v9.3.1 ('Mask Machine') 64bit
Writing library            : libebml v1.3.4 + libmatroska v1.4.5
Cover                      : Yes
Attachments                : small_cover.jpg / small_cover_land.jpg / cover.jpg / cover_land.jpg

Video
ID                          : 1
Format                      : AVC
Format/Info                : Advanced Video Codec
Format profile              : High@L4.1
Format settings, CABAC      : Yes
Format settings, ReFrames  : 4 frames
Codec ID                    : V_MPEG4/ISO/AVC
Duration                    : 1h 45mn
Nominal bit rate            : 8 818 Kbps
Width                      : 1 920 pixels
Height                      : 1 040 pixels
Display aspect ratio        : 1.85:1
Frame rate mode            : Constant
Frame rate                  : 23.976 (24000/1001) fps
Color space                : YUV
Chroma subsampling          : 4:2:0
Bit depth                  : 8 bits
Scan type                  : Progressive
Bits/(Pixel*Frame)          : 0.184
Title                      : The.Jungle.Book.2016.1080p.BluRay.x264.DTS-HD.MA.7.1-FGT
Writing library            : x264 core 148 r2705 3f5ed56
Encoding settings          : cabac=1 / ref=4 / deblock=1:0:0 / analyse=0x3:0x113 / me=umh / subme=8 / psy=1 / psy_rd=1.00:0.00 / mixed_ref=1 / me_range=16 / chroma_me=1 / trellis=1 / 8x8dct=1 / cqm=0 / deadzone=21,11 / fast_pskip=0 / chroma_qp_offset=-2 / threads=18 / lookahead_threads=3 / sliced_threads=0 / nr=0 / decimate=1 / interlaced=0 / bluray_compat=0 / constrained_intra=0 / bframes=3 / b_pyramid=2 / b_adapt=2 / b_bias=0 / direct=3 / weightb=1 / open_gop=0 / weightp=2 / keyint=250 / keyint_min=23 / scenecut=40 / intra_refresh=0 / rc_lookahead=50 / rc=2pass / mbtree=1 / bitrate=8818 / ratetol=1.0 / qcomp=0.60 / qpmin=0 / qpmax=69 / qpstep=4 / cplxblur=20.0 / qblur=0.5 / ip_ratio=1.40 / aq=1:1.00
Language                    : English
Default                    : Yes
Forced                      : No

Audio
ID                          : 2
Format                      : DTS
Format/Info                : Digital Theater Systems
Format profile              : MA / Core
Mode                        : 16
Format settings, Endianness : Big
Codec ID                    : A_DTS
Duration                    : 1h 45mn
Bit rate mode              : Variable / Constant
Bit rate                    : Unknown / 1 509 Kbps
Channel(s)                  : 8 channels / 6 channels
Channel positions          : Front: L C R, Side: L R, Back: L R, LFE / Front: L C R, Side: L R, LFE
Sampling rate              : 48.0 KHz
Frame rate                  : 93.750 fps (512 spf)
Bit depth                  : 24 bits
Compression mode            : Lossless / Lossy
Title                      : The.Jungle.Book.2016.1080p.BluRay.x264.DTS-HD.MA.7.1-FGT
Language                    : English
Default                    : Yes
Forced                      : No

Text #1
ID                          : 3
Format                      : PGS
Muxing mode                : zlib
Codec ID                    : S_HDMV/PGS
Codec ID/Info              : Picture based subtitle format used on BDs/HD-DVDs
Title                      : English-PGS
Language                    : English
Default                    : No
Forced                      : No

Text #2
ID                          : 4
Format                      : PGS
Muxing mode                : zlib
Codec ID                    : S_HDMV/PGS
Codec ID/Info              : Picture based subtitle format used on BDs/HD-DVDs
Title                      : Arabic-PGS
Language                    : Arabic
Default                    : No
Forced                      : No

Text #3
ID                          : 5
Format                      : PGS
Muxing mode                : zlib
Codec ID                    : S_HDMV/PGS
Codec ID/Info              : Picture based subtitle format used on BDs/HD-DVDs
Title                      : German-PGS
Language                    : German
Default                    : No
Forced                      : No

Text #4
ID                          : 6
Format                      : PGS
Muxing mode                : zlib
Codec ID                    : S_HDMV/PGS
Codec ID/Info              : Picture based subtitle format used on BDs/HD-DVDs
Title                      : Italian-PGS
Language                    : Italian
Default                    : No
Forced                      : No

Text #5
ID                          : 7
Format                      : PGS
Muxing mode                : zlib
Codec ID                    : S_HDMV/PGS
Codec ID/Info              : Picture based subtitle format used on BDs/HD-DVDs
Title                      : Greek-PGS
Language                    : Greek
Default                    : No
Forced                      : No

Text #6
ID                          : 8
Format                      : PGS
Muxing mode                : zlib
Codec ID                    : S_HDMV/PGS
Codec ID/Info              : Picture based subtitle format used on BDs/HD-DVDs
Title                      : Romanian-PGS
Language                    : Romanian
Default                    : No
Forced                      : No

Menu
00:00:00.000                : en:00:00:00.000
00:00:48.215                : en:00:00:48.215
00:05:15.315                : en:00:05:15.315
00:09:02.459                : en:00:09:02.459
00:12:42.178                : en:00:12:42.178
00:16:34.452                : en:00:16:34.452
00:21:20.029                : en:00:21:20.029
00:27:15.133                : en:00:27:15.133
00:35:04.144                : en:00:35:04.144
00:43:21.724                : en:00:43:21.724
00:48:05.132                : en:00:48:05.132
00:53:29.248                : en:00:53:29.248
00:58:03.271                : en:00:58:03.271
01:05:46.442                : en:01:05:46.442
01:10:35.523                : en:01:10:35.523
01:17:01.325                : en:01:17:01.325
01:20:48.927                : en:01:20:48.927
01:24:46.540                : en:01:24:46.540
01:30:32.969                : en:01:30:32.969
01:35:53.206                : en:01:35:53.206

kód:

http://www.fastshare.cz/6304772/tfmhdyb0861kbegjht.part1.rar
http://www.fastshare.cz/6304774/tfmhdyb0861kbegjht.part2.rar
http://www.fastshare.cz/6304778/tfmhdyb0861kbegjht.part3.rar
http://www.fastshare.cz/6304780/tfmhdyb0861kbegjht.part4.rar
http://www.fastshare.cz/6304785/tfmhdyb0861kbegjht.part5.rar
http://www.fastshare.cz/6304786/tfmhdyb0861kbegjht.part6.rar

kód:

https://sdilej.cz/7912827/TFMHDyB0861kBegJhT.part1.rar
https://sdilej.cz/7912829/TFMHDyB0861kBegJhT.part2.rar
https://sdilej.cz/7912836/TFMHDyB0861kBegJhT.part3.rar
https://sdilej.cz/7912838/TFMHDyB0861kBegJhT.part4.rar
https://sdilej.cz/7912839/TFMHDyB0861kBegJhT.part5.rar
https://sdilej.cz/7912840/TFMHDyB0861kBegJhT.part6.rar

Upload 3% na opravu dat

no pass
Návrat hore Goto down
Zobrazit informácie o autorovi
Jack86



Počet príspevkov : 110
Registration date : 10.02.2010

OdoslaťPredmet: Re: Jungle Book, The / Kniha džunglí (2016)   Po august 08, 2016 4:22 pm




kód:

http://www.csfd.cz/film/369825-kniha-dzungli/prehled/
http://www.imdb.com/title/tt3040964/combined


[size=140]The.Jungle.Book.2016.1080p.BluRay.REMUX.AVC.DTS-HD.MA.7.1-FGT + titulky[/size]


Audio: EN
Titulky: CZ


kód:
The.Jungle.Book.2016.1080p.BluRay.REMUX.AVC.DTS-HD.MA.7.1-FGT
Format                      : Matroska
Format version              : Version 4 / Version 2
File size                  : 32.0 GiB
Duration                    : 1h 45mn
Overall bit rate mode      : Variable
Overall bit rate            : 43.3 Mbps
Movie name                  : RARBG.COM - The.Jungle.Book.2016.1080p.BluRay.REMUX.AVC.DTS-HD.MA.7.1-FGT
Encoded date                : UTC 2016-08-06 13:17:06
Writing application        : mkvmerge v9.3.1 ('Mask Machine') 64bit
Writing library            : libebml v1.3.4 + libmatroska v1.4.5
Cover                      : Yes
Attachments                : small_cover.jpg / small_cover_land.jpg / cover.jpg / cover_land.jpg

Video
ID                          : 1
Format                      : AVC
Format/Info                : Advanced Video Codec
Format profile              : High@L4.1
Format settings, CABAC      : Yes
Format settings, ReFrames  : 4 frames
Codec ID                    : V_MPEG4/ISO/AVC
Duration                    : 1h 45mn
Bit rate mode              : Variable
Maximum bit rate            : 32.0 Mbps
Width                      : 1 920 pixels
Height                      : 1 080 pixels
Display aspect ratio        : 16:9
Frame rate mode            : Constant
Frame rate                  : 23.976 (24000/1001) fps
Color space                : YUV
Chroma subsampling          : 4:2:0
Bit depth                  : 8 bits
Scan type                  : Progressive
Title                      : The.Jungle.Book.2016.1080p.BluRay.REMUX.AVC.DTS-HD.MA.7.1-FGT
Language                    : English
Default                    : No
Forced                      : No

Audio #1
ID                          : 2
Format                      : DTS
Format/Info                : Digital Theater Systems
Format profile              : MA / Core
Mode                        : 16
Format settings, Endianness : Big
Codec ID                    : A_DTS
Duration                    : 1h 45mn
Bit rate mode              : Variable / Constant
Bit rate                    : Unknown / 1 509 Kbps
Channel(s)                  : 8 channels / 6 channels
Channel positions          : Front: L C R, Side: L R, Back: L R, LFE / Front: L C R, Side: L R, LFE
Sampling rate              : 48.0 KHz
Frame rate                  : 93.750 fps (512 spf)
Bit depth                  : 24 bits
Compression mode            : Lossless / Lossy
Title                      : The.Jungle.Book.2016.1080p.BluRay.REMUX.AVC.DTS-HD.MA.7.1-FGT
Language                    : English
Default                    : Yes
Forced                      : No

Audio #2
ID                          : 3
Format                      : DTS
Format/Info                : Digital Theater Systems
Mode                        : 16
Format settings, Endianness : Big
Codec ID                    : A_DTS
Duration                    : 1h 45mn
Bit rate mode              : Constant
Bit rate                    : 1 509 Kbps
Channel(s)                  : 6 channels
Channel positions          : Front: L C R, Side: L R, LFE
Sampling rate              : 48.0 KHz
Frame rate                  : 93.750 fps (512 spf)
Bit depth                  : 24 bits
Compression mode            : Lossy
Stream size                : 1.12 GiB (3%)
Title                      : The.Jungle.Book.2016.1080p.BluRay.REMUX.AVC.DTS-HD.MA.7.1-FGT
Language                    : English
Default                    : No
Forced                      : No

Audio #3
ID                          : 4
Format                      : DTS
Format/Info                : Digital Theater Systems
Format profile              : HRA / Core
Mode                        : 16
Format settings, Endianness : Big
Codec ID                    : A_DTS
Duration                    : 1h 45mn
Bit rate mode              : Constant
Bit rate                    : 2 046 Kbps / 1 509 Kbps
Channel(s)                  : 6 channels
Channel positions          : Front: L C R, Side: L R, LFE
Sampling rate              : 48.0 KHz
Frame rate                  : 93.750 fps (512 spf)
Bit depth                  : 24 bits
Compression mode            : Lossy
Stream size                : 1.51 GiB (5%)
Title                      : The.Jungle.Book.2016.1080p.BluRay.REMUX.AVC.DTS-HD.MA.7.1-FGT
Language                    : German
Default                    : No
Forced                      : No

Audio #4
ID                          : 5
Format                      : DTS
Format/Info                : Digital Theater Systems
Mode                        : 16
Format settings, Endianness : Big
Codec ID                    : A_DTS
Duration                    : 1h 45mn
Bit rate mode              : Constant
Bit rate                    : 1 509 Kbps
Channel(s)                  : 6 channels
Channel positions          : Front: L C R, Side: L R, LFE
Sampling rate              : 48.0 KHz
Frame rate                  : 93.750 fps (512 spf)
Bit depth                  : 24 bits
Compression mode            : Lossy
Stream size                : 1.12 GiB (3%)
Title                      : The.Jungle.Book.2016.1080p.BluRay.REMUX.AVC.DTS-HD.MA.7.1-FGT
Language                    : German
Default                    : No
Forced                      : No

Audio #5
ID                          : 6
Format                      : DTS
Format/Info                : Digital Theater Systems
Mode                        : 16
Format settings, Endianness : Big
Codec ID                    : A_DTS
Duration                    : 1h 45mn
Bit rate mode              : Constant
Bit rate                    : 1 509 Kbps
Channel(s)                  : 6 channels
Channel positions          : Front: L C R, Side: L R, LFE
Sampling rate              : 48.0 KHz
Frame rate                  : 93.750 fps (512 spf)
Bit depth                  : 24 bits
Compression mode            : Lossy
Stream size                : 1.12 GiB (3%)
Title                      : The.Jungle.Book.2016.1080p.BluRay.REMUX.AVC.DTS-HD.MA.7.1-FGT
Language                    : Italian
Default                    : No
Forced                      : No

Audio #6
ID                          : 7
Format                      : AC-3
Format/Info                : Audio Coding 3
Mode extension              : CM (complete main)
Format settings, Endianness : Big
Codec ID                    : A_AC3
Duration                    : 1h 45mn
Bit rate mode              : Constant
Bit rate                    : 640 Kbps
Channel(s)                  : 6 channels
Channel positions          : Front: L C R, Side: L R, LFE
Sampling rate              : 48.0 KHz
Frame rate                  : 31.250 fps (1536 spf)
Compression mode            : Lossy
Stream size                : 485 MiB (1%)
Title                      : The.Jungle.Book.2016.1080p.BluRay.REMUX.AVC.DTS-HD.MA.7.1-FGT
Language                    : Greek
Default                    : No
Forced                      : No

Audio #7
ID                          : 8
Format                      : AC-3
Format/Info                : Audio Coding 3
Mode extension              : CM (complete main)
Format settings, Endianness : Big
Codec ID                    : A_AC3
Duration                    : 1h 45mn
Bit rate mode              : Constant
Bit rate                    : 640 Kbps
Channel(s)                  : 6 channels
Channel positions          : Front: L C R, Side: L R, LFE
Sampling rate              : 48.0 KHz
Frame rate                  : 31.250 fps (1536 spf)
Compression mode            : Lossy
Stream size                : 485 MiB (1%)
Title                      : The.Jungle.Book.2016.1080p.BluRay.REMUX.AVC.DTS-HD.MA.7.1-FGT
Language                    : Romanian
Default                    : No
Forced                      : No

Audio #8
ID                          : 9
Format                      : AC-3
Format/Info                : Audio Coding 3
Mode extension              : CM (complete main)
Format settings, Endianness : Big
Codec ID                    : A_AC3
Duration                    : 1h 45mn
Bit rate mode              : Constant
Bit rate                    : 192 Kbps
Channel(s)                  : 2 channels
Channel positions          : Front: L R
Sampling rate              : 48.0 KHz
Frame rate                  : 31.250 fps (1536 spf)
Compression mode            : Lossy
Stream size                : 145 MiB (0%)
Title                      : The.Jungle.Book.2016.1080p.BluRay.REMUX.AVC.DTS-HD.MA.7.1-FGT
Language                    : English
Default                    : No
Forced                      : No

Text #1
ID                          : 10
Format                      : PGS
Muxing mode                : zlib
Codec ID                    : S_HDMV/PGS
Codec ID/Info              : Picture based subtitle format used on BDs/HD-DVDs
Title                      : English-PGS
Language                    : English
Default                    : No
Forced                      : No

Text #2
ID                          : 11
Format                      : PGS
Muxing mode                : zlib
Codec ID                    : S_HDMV/PGS
Codec ID/Info              : Picture based subtitle format used on BDs/HD-DVDs
Title                      : Arabic-PGS
Language                    : Arabic
Default                    : No
Forced                      : No

Text #3
ID                          : 12
Format                      : PGS
Muxing mode                : zlib
Codec ID                    : S_HDMV/PGS
Codec ID/Info              : Picture based subtitle format used on BDs/HD-DVDs
Title                      : German-PGS
Language                    : German
Default                    : No
Forced                      : No

Text #4
ID                          : 13
Format                      : PGS
Muxing mode                : zlib
Codec ID                    : S_HDMV/PGS
Codec ID/Info              : Picture based subtitle format used on BDs/HD-DVDs
Title                      : Italian-PGS
Language                    : Italian
Default                    : No
Forced                      : No

Text #5
ID                          : 14
Format                      : PGS
Muxing mode                : zlib
Codec ID                    : S_HDMV/PGS
Codec ID/Info              : Picture based subtitle format used on BDs/HD-DVDs
Title                      : Greek-PGS
Language                    : Greek
Default                    : No
Forced                      : No

Text #6
ID                          : 15
Format                      : PGS
Muxing mode                : zlib
Codec ID                    : S_HDMV/PGS
Codec ID/Info              : Picture based subtitle format used on BDs/HD-DVDs
Title                      : Romanian-PGS
Language                    : Romanian
Default                    : No
Forced                      : No

Text #7
ID                          : 16
Format                      : PGS
Muxing mode                : zlib
Codec ID                    : S_HDMV/PGS
Codec ID/Info              : Picture based subtitle format used on BDs/HD-DVDs
Title                      : English-COMMENTARY-PGS
Language                    : English
Default                    : No
Forced                      : No

Text #8
ID                          : 17
Format                      : PGS
Muxing mode                : zlib
Codec ID                    : S_HDMV/PGS
Codec ID/Info              : Picture based subtitle format used on BDs/HD-DVDs
Title                      : German-COMMENTARY-PGS
Language                    : German
Default                    : No
Forced                      : No

Text #9
ID                          : 18
Format                      : PGS
Muxing mode                : zlib
Codec ID                    : S_HDMV/PGS
Codec ID/Info              : Picture based subtitle format used on BDs/HD-DVDs
Title                      : Italian-COMMENTARY-PGS
Language                    : Italian
Default                    : No
Forced                      : No

Menu
00:00:00.000                : en:Chapter 01
00:00:48.214                : en:Chapter 02
00:05:15.315                : en:Chapter 03
00:09:02.458                : en:Chapter 04
00:12:42.178                : en:Chapter 05
00:16:34.451                : en:Chapter 06
00:21:20.028                : en:Chapter 07
00:27:15.133                : en:Chapter 08
00:35:04.143                : en:Chapter 09
00:43:21.724                : en:Chapter 10
00:48:05.132                : en:Chapter 11
00:53:29.247                : en:Chapter 12
00:58:03.271                : en:Chapter 13
01:05:46.442                : en:Chapter 14
01:10:35.522                : en:Chapter 15
01:17:01.325                : en:Chapter 16
01:20:48.927                : en:Chapter 17
01:24:46.539                : en:Chapter 18
01:30:32.969                : en:Chapter 19
01:35:53.205                : en:Chapter 20

kód:

http://www.fastshare.cz/6307396/tgfadtdxuryrb0861kbenj.part01.rar
http://www.fastshare.cz/6307401/tgfadtdxuryrb0861kbenj.part02.rar
http://www.fastshare.cz/6307404/tgfadtdxuryrb0861kbenj.part03.rar
http://www.fastshare.cz/6307409/tgfadtdxuryrb0861kbenj.part04.rar
http://www.fastshare.cz/6307414/tgfadtdxuryrb0861kbenj.part05.rar
http://www.fastshare.cz/6307419/tgfadtdxuryrb0861kbenj.part06.rar
http://www.fastshare.cz/6307449/tgfadtdxuryrb0861kbenj.part07.rar
http://www.fastshare.cz/6307457/tgfadtdxuryrb0861kbenj.part08.rar
http://www.fastshare.cz/6307467/tgfadtdxuryrb0861kbenj.part09.rar
http://www.fastshare.cz/6307480/tgfadtdxuryrb0861kbenj.part10.rar
http://www.fastshare.cz/6307491/tgfadtdxuryrb0861kbenj.part11.rar
http://www.fastshare.cz/6307502/tgfadtdxuryrb0861kbenj.part12.rar
http://www.fastshare.cz/6307519/tgfadtdxuryrb0861kbenj.part13.rar
http://www.fastshare.cz/6307527/tgfadtdxuryrb0861kbenj.part14.rar
http://www.fastshare.cz/6307533/tgfadtdxuryrb0861kbenj.part15.rar
http://www.fastshare.cz/6307544/tgfadtdxuryrb0861kbenj.part16.rar
http://www.fastshare.cz/6307550/tgfadtdxuryrb0861kbenj.part17.rar

kód:

https://sdilej.cz/7913474/TGFADTDXURyRB0861kBenJ.part02.rar
https://sdilej.cz/7913475/TGFADTDXURyRB0861kBenJ.part04.rar
https://sdilej.cz/7913488/TGFADTDXURyRB0861kBenJ.part01.rar
https://sdilej.cz/7913490/TGFADTDXURyRB0861kBenJ.part03.rar
https://sdilej.cz/7913493/TGFADTDXURyRB0861kBenJ.part05.rar
https://sdilej.cz/7913496/TGFADTDXURyRB0861kBenJ.part06.rar
https://sdilej.cz/7913498/TGFADTDXURyRB0861kBenJ.part09.rar
https://sdilej.cz/7913499/TGFADTDXURyRB0861kBenJ.part10.rar
https://sdilej.cz/7913500/TGFADTDXURyRB0861kBenJ.part11.rar
https://sdilej.cz/7913505/TGFADTDXURyRB0861kBenJ.part12.rar
https://sdilej.cz/7913508/TGFADTDXURyRB0861kBenJ.part13.rar
https://sdilej.cz/7913509/TGFADTDXURyRB0861kBenJ.part14.rar
https://sdilej.cz/7913512/TGFADTDXURyRB0861kBenJ.part15.rar
https://sdilej.cz/7913693/TGFADTDXURyRB0861kBenJ.part07.rar
https://sdilej.cz/7913695/TGFADTDXURyRB0861kBenJ.part08.rar
https://sdilej.cz/7913696/TGFADTDXURyRB0861kBenJ.part16.rar
https://sdilej.cz/7913700/TGFADTDXURyRB0861kBenJ.part17.rar


Upload 3% na opravu dat

no pass
Návrat hore Goto down
Zobrazit informácie o autorovi
 
Jungle Book, The / Kniha džunglí (2016)
Zobraziť predchádzajúcu tému Zobraziť nasledujúcu tému Návrat hore 
Strana 1 z 1

Povolenie tohoto fóra:Nemôžete odpovedať na témy v tomto fóre.
Warforum :: Sťahuj :: FILMY-
Prejdi na: