Warforum

stahuj.forumonline.biz
 
DomovFAQHľadaťRegistráciaZoznam užívateľovUžívateľské skupinyPrihlásenie

Share | 
 

 10 pravidel jak sbalit holku/10 Rules for Winning...(2014)

Zobraziť predchádzajúcu tému Zobraziť nasledujúcu tému Goto down 
AutorSpráva
Jack86



Počet príspevkov : 110
Registration date : 10.02.2010

OdoslaťPredmet: 10 pravidel jak sbalit holku/10 Rules for Winning...(2014)   Pi august 05, 2016 2:50 am




kód:

http://www.csfd.cz/film/337673-10-pravidel-jak-sbalit-holku/prehled/
http://www.imdb.com/title/tt3021744/combined


[size=140]10.pravidel.jak.sbalit.holku.2014.720p.BluRay.DTS.x264-DON[/size]


Audio: CZ
Titulky: CZ


kód:
10.pravidel.jak.sbalit.holku.2014.720p.BluRay.DTS.x264-DON
Format                      : Matroska
Format version              : Version 4 / Version 2
File size                  : 4.97 GiB
Duration                    : 1h 36mn
Overall bit rate            : 7 390 Kbps
Encoded date                : UTC 2014-09-05 08:36:53
Writing application        : mkvmerge v6.9.1 ('Blue Panther') 64bit built on Apr 18 2014 18:23:38
Writing library            : libebml v1.3.0 + libmatroska v1.4.1

Video
ID                          : 1
Format                      : AVC
Format/Info                : Advanced Video Codec
Format profile              : High@L4.1
Format settings, CABAC      : Yes
Format settings, ReFrames  : 12 frames
Codec ID                    : V_MPEG4/ISO/AVC
Duration                    : 1h 36mn
Bit rate                    : 5 734 Kbps
Width                      : 1 280 pixels
Height                      : 536 pixels
Display aspect ratio        : 2.40:1
Frame rate mode            : Constant
Frame rate                  : 24.000 fps
Color space                : YUV
Chroma subsampling          : 4:2:0
Bit depth                  : 8 bits
Scan type                  : Progressive
Bits/(Pixel*Frame)          : 0.348
Stream size                : 3.86 GiB (78%)
Title                      : 10.pravidel.jak.sbalit.holku.2014.720p.BluRy.DTS.x264-DON
Writing library            : x264 core 140 r2377 1ca7bb9
Encoding settings          : cabac=1 / ref=12 / deblock=1:-3:-3 / analyse=0x3:0x133 / me=umh / subme=10 / psy=1 / psy_rd=1.05:0.00 / mixed_ref=1 / me_range=48 / chroma_me=1 / trellis=2 / 8x8dct=1 / cqm=0 / deadzone=21,11 / fast_pskip=0 / chroma_qp_offset=-2 / threads=12 / lookahead_threads=2 / sliced_threads=0 / nr=0 / decimate=0 / interlaced=0 / bluray_compat=0 / constrained_intra=0 / bframes=8 / b_pyramid=2 / b_adapt=2 / b_bias=0 / direct=3 / weightb=1 / open_gop=0 / weightp=2 / keyint=240 / keyint_min=24 / scenecut=40 / intra_refresh=0 / rc_lookahead=60 / rc=crf / mbtree=0 / crf=15.5 / qcomp=0.65 / qpmin=0 / qpmax=69 / qpstep=4 / vbv_maxrate=62500 / vbv_bufsize=78125 / crf_max=0.0 / nal_hrd=none / filler=0 / ip_ratio=1.20 / pb_ratio=1.10 / aq=1:0.75
Language                    : Czech
Default                    : Yes
Forced                      : No

Audio
ID                          : 2
Format                      : DTS
Format/Info                : Digital Theater Systems
Mode                        : 16
Format settings, Endianness : Big
Codec ID                    : A_DTS
Duration                    : 1h 36mn
Bit rate mode              : Constant
Bit rate                    : 1 509 Kbps
Channel(s)                  : 6 channels
Channel positions          : Front: L C R, Side: L R, LFE
Sampling rate              : 48.0 KHz
Frame rate                  : 93.750 fps (512 spf)
Bit depth                  : 24 bits
Compression mode            : Lossy
Stream size                : 1.02 GiB (20%)
Language                    : Czech
Default                    : Yes
Forced                      : No

Text #1
ID                          : 3
Format                      : UTF-8
Codec ID                    : S_TEXT/UTF8
Codec ID/Info              : UTF-8 Plain Text
Language                    : English
Default                    : No
Forced                      : No

Text #2
ID                          : 4
Format                      : UTF-8
Codec ID                    : S_TEXT/UTF8
Codec ID/Info              : UTF-8 Plain Text
Title                      : SDH
Language                    : Czech
Default                    : No
Forced                      : No

Menu
00:00:00.000                : cs:00:00:00.000
00:07:44.333                : cs:00:07:44.333
00:16:14.542                : cs:00:16:14.542
00:23:29.708                : cs:00:23:29.708
00:31:11.125                : cs:00:31:11.125
00:40:24.458                : cs:00:40:24.458
00:46:18.375                : cs:00:46:18.375
00:55:11.667                : cs:00:55:11.667
01:02:51.583                : cs:01:02:51.583
01:12:53.083                : cs:01:12:53.083
01:21:10.833                : cs:01:21:10.833
01:31:28.542                : cs:01:31:28.542

kód:

http://www.fastshare.cz/6295169/ndsdyb0241klhtlskjlvp01.part1.rar
http://www.fastshare.cz/6295177/ndsdyb0241klhtlskjlvp01.part2.rar
http://www.fastshare.cz/6295183/ndsdyb0241klhtlskjlvp01.part3.rar

kód:

https://sdilej.cz/7909291/NDSDyB0241klhtlskjlvp01.part1.rar
https://sdilej.cz/7909351/NDSDyB0241klhtlskjlvp01.part2.rar
https://sdilej.cz/7909357/NDSDyB0241klhtlskjlvp01.part3.rar


Upload 3% na opravu dat

no pass
Návrat hore Goto down
Zobrazit informácie o autorovi
 
10 pravidel jak sbalit holku/10 Rules for Winning...(2014)
Zobraziť predchádzajúcu tému Zobraziť nasledujúcu tému Návrat hore 
Strana 1 z 1

Povolenie tohoto fóra:Nemôžete odpovedať na témy v tomto fóre.
Warforum :: Sťahuj :: FILMY-
Prejdi na: