Warforum

stahuj.forumonline.biz
 
DomovFAQHľadaťRegistráciaZoznam užívateľovUžívateľské skupinyPrihlásenie

Share | 
 

 Colette (2013)

Zobraziť predchádzajúcu tému Zobraziť nasledujúcu tému Goto down 
AutorSpráva
Jack86



Počet príspevkov : 110
Registration date : 10.02.2010

OdoslaťPredmet: Colette (2013)   Pi august 05, 2016 2:13 am




kód:

http://www.csfd.cz/film/324534-colette/prehled/
http://www.imdb.com/title/tt2679576/combined


[size=140]Colette.2013.1080p.BluRay.DTS.x264-DON[/size]


Audio: EN/CZ
Titulky: CZ/CZ(F)


kód:
Colette.2013.1080p.BluRay.DTS.x264-DON
Format                      : Matroska
Format version              : Version 4 / Version 2
File size                  : 13.0 GiB
Duration                    : 2h 4mn
Overall bit rate            : 14.9 Mbps
Encoded date                : UTC 2014-02-18 04:18:52
Writing application        : mkvmerge v6.5.0 ('Isn't she lovely') built on Oct 20 2013 12:50:05
Writing library            : libebml v1.3.0 + libmatroska v1.4.1

Video
ID                          : 1
Format                      : AVC
Format/Info                : Advanced Video Codec
Format profile              : High@L4.1
Format settings, CABAC      : Yes
Format settings, ReFrames  : 5 frames
Codec ID                    : V_MPEG4/ISO/AVC
Duration                    : 2h 4mn
Bit rate                    : 12.6 Mbps
Width                      : 1 920 pixels
Height                      : 804 pixels
Display aspect ratio        : 2.40:1
Frame rate mode            : Constant
Frame rate                  : 24.000 fps
Color space                : YUV
Chroma subsampling          : 4:2:0
Bit depth                  : 8 bits
Scan type                  : Progressive
Bits/(Pixel*Frame)          : 0.341
Stream size                : 11.0 GiB (85%)
Title                      : Colette.2013.1080p.BluRay.DTS.x264-DON
Writing library            : x264 core 140 r2377 1ca7bb9
Encoding settings          : cabac=1 / ref=5 / deblock=1:-3:-3 / analyse=0x3:0x133 / me=tesa / subme=10 / psy=1 / psy_rd=1.05:0.00 / mixed_ref=1 / me_range=24 / chroma_me=1 / trellis=2 / 8x8dct=1 / cqm=0 / deadzone=21,11 / fast_pskip=0 / chroma_qp_offset=-2 / threads=12 / lookahead_threads=2 / sliced_threads=0 / nr=0 / decimate=0 / interlaced=0 / bluray_compat=0 / constrained_intra=0 / bframes=8 / b_pyramid=2 / b_adapt=2 / b_bias=0 / direct=3 / weightb=1 / open_gop=0 / weightp=2 / keyint=240 / keyint_min=24 / scenecut=40 / intra_refresh=0 / rc_lookahead=60 / rc=crf / mbtree=0 / crf=15.5 / qcomp=0.60 / qpmin=0 / qpmax=69 / qpstep=4 / vbv_maxrate=62500 / vbv_bufsize=78125 / crf_max=0.0 / nal_hrd=none / filler=0 / ip_ratio=1.30 / pb_ratio=1.10 / aq=1:0.75 / zones=505,1935,crf=13.5/12487,12642,crf=13.5/13071,13298,crf=13.5/14160,15209,crf=13.5/15541,15621,crf=13.5/15677,15840,crf=13.5/15955,16168,crf=13.5/16240,16262,crf=13.5/16762,17755,crf=13.5/19879,19944,crf=13.5/20033,20041,crf=13.5/20100,20143,crf=13.5/23685,23800,crf=13.5/27192,27385,crf=13.5/27672,27894,crf=13.5/28340,28583,crf=13.5/29051,29124,crf=13.5/29684,29971,crf=13.5/32689,32754,crf=13.5/32910,33009,crf=13.5/33175,33290,crf=13.5/33646,33693,crf=13.5/34093,34166,crf=13.5/34258,34391,crf=13.5/34537,34578,crf=13.5/34900,38146,crf=13.5/38326,38471,crf=13.5/38582,38734,crf=13.5/39040,39142,crf=13.5/39332,40133,crf=13.5/42107,45933,crf=13.5/48858,51864,crf=13.5/52373,52772,crf=13.5/55465,56104,crf=13.5/59312,59612,crf=13.5/67456,71423,crf=13.5/71607,71695,crf=13.5/74788,74951,crf=13.5/77389,77460,crf=13.5/79515,80141,crf=13.5/80925,83804,crf=13.5/89164,91321,crf=13.5/91766,92180,crf=13.5/92390,93916,crf=13.5/94746,96853,crf=13.5/100794,104753,crf=13.5/106258,111348,crf=13.5/111794,112593,crf=13.5/114139,119987crf=13.5/123194,123913,crf=13.5/125834,126080,crf=13.5/127477,128227,crf=13.5/129131,137307,crf=13.5/138011,138203,crf=13.5/139701,139955,crf=13.5/142112,142297,crf=13.5/144027,147910,crf=13.5/148655,148875,crf=13.5/153307,153799,crf=13.5/154142,155451,crf=13.5/157595,157649,crf=13.5/171360,171375,crf=13.5/171376,179725,crf=20
Language                    : English
Default                    : Yes
Forced                      : No

Audio #1
ID                          : 2
Format                      : AC-3
Format/Info                : Audio Coding 3
Mode extension              : CM (complete main)
Format settings, Endianness : Big
Codec ID                    : A_AC3
Duration                    : 2h 4mn
Bit rate mode              : Constant
Bit rate                    : 448 Kbps
Channel(s)                  : 6 channels
Channel positions          : Front: L C R, Side: L R, LFE
Sampling rate              : 48.0 KHz
Frame rate                  : 31.250 fps (1536 spf)
Compression mode            : Lossy
Stream size                : 400 MiB (3%)
Title                      : BDrip
Language                    : Czech
Default                    : Yes
Forced                      : No

Audio #2
ID                          : 3
Format                      : DTS
Format/Info                : Digital Theater Systems
Mode                        : 16
Format settings, Endianness : Big
Codec ID                    : A_DTS
Duration                    : 2h 4mn
Bit rate mode              : Constant
Bit rate                    : 1 509 Kbps
Channel(s)                  : 6 channels
Channel positions          : Front: L C R, Side: L R, LFE
Sampling rate              : 48.0 KHz
Frame rate                  : 93.750 fps (512 spf)
Bit depth                  : 24 bits
Compression mode            : Lossy
Stream size                : 1.32 GiB (10%)
Language                    : English
Default                    : No
Forced                      : No

Text #1
ID                          : 4
Format                      : UTF-8
Codec ID                    : S_TEXT/UTF8
Codec ID/Info              : UTF-8 Plain Text
Title                      : F
Default                    : Yes
Forced                      : Yes

Text #2
ID                          : 5
Format                      : UTF-8
Codec ID                    : S_TEXT/UTF8
Codec ID/Info              : UTF-8 Plain Text
Language                    : Czech
Default                    : No
Forced                      : No

Text #3
ID                          : 6
Format                      : UTF-8
Codec ID                    : S_TEXT/UTF8
Codec ID/Info              : UTF-8 Plain Text
Title                      : SDH
Language                    : Czech
Default                    : No
Forced                      : No

kód:

http://www.fastshare.cz/6294992/ndsdyb0831tlc.part1.rar
http://www.fastshare.cz/6294997/ndsdyb0831tlc.part2.rar
http://www.fastshare.cz/6295005/ndsdyb0831tlc.part3.rar
http://www.fastshare.cz/6295013/ndsdyb0831tlc.part4.rar
http://www.fastshare.cz/6295019/ndsdyb0831tlc.part5.rar
http://www.fastshare.cz/6295025/ndsdyb0831tlc.part6.rar
http://www.fastshare.cz/6295030/ndsdyb0831tlc.part7.rar

kód:

https://sdilej.cz/7909205/NDSDyB0831tlC.part1.rar
https://sdilej.cz/7909214/NDSDyB0831tlC.part6.rar
https://sdilej.cz/7909216/NDSDyB0831tlC.part2.rar
https://sdilej.cz/7909218/NDSDyB0831tlC.part3.rar
https://sdilej.cz/7909226/NDSDyB0831tlC.part7.rar
https://sdilej.cz/7909231/NDSDyB0831tlC.part4.rar
https://sdilej.cz/7909236/NDSDyB0831tlC.part5.rar


Upload 3% na opravu dat

no pass
Návrat hore Goto down
Zobrazit informácie o autorovi
 
Colette (2013)
Zobraziť predchádzajúcu tému Zobraziť nasledujúcu tému Návrat hore 
Strana 1 z 1

Povolenie tohoto fóra:Nemôžete odpovedať na témy v tomto fóre.
Warforum :: Sťahuj :: FILMY-
Prejdi na: