Warforum

stahuj.forumonline.biz
 
DomovFAQHľadaťRegistráciaZoznam užívateľovUžívateľské skupinyPrihlásenie

Share | 
 

 Bitevní loď / Battleship (2012)

Zobraziť predchádzajúcu tému Zobraziť nasledujúcu tému Goto down 
AutorSpráva
Jack86



Počet príspevkov : 110
Registration date : 10.02.2010

OdoslaťPredmet: Bitevní loď / Battleship (2012)   Ut júl 26, 2016 10:40 pm




kód:

http://www.csfd.cz/film/269236-bitevni-lod/prehled/
http://www.imdb.com/title/tt1440129/combined


[size=140]Battleship.2012.1080p.BluRay.DTS.x264-DON[/size]


Audio: EN/CZ
Titulky: CZ/CZ(F)


kód:
Battleship.2012.1080p.BluRay.DTS.x264-DON
Format                      : Matroska
Format version              : Version 2
File size                  : 15.7 GiB
Duration                    : 2h 11mn
Overall bit rate            : 17.1 Mbps
Encoded date                : UTC 2012-08-21 15:59:19
Writing application        : mkvmerge v5.6.0 ('Kenya Kane') built on May 27 2012 16:44:04
Writing library            : libebml v1.2.3 + libmatroska v1.3.0

Video
ID                          : 1
Format                      : AVC
Format/Info                : Advanced Video Codec
Format profile              : High@L4.1
Format settings, CABAC      : Yes
Format settings, ReFrames  : 5 frames
Codec ID                    : V_MPEG4/ISO/AVC
Duration                    : 2h 11mn
Bit rate                    : 14.8 Mbps
Width                      : 1 920 pixels
Height                      : 800 pixels
Display aspect ratio        : 2.40:1
Frame rate mode            : Constant
Frame rate                  : 23.976 (24000/1001) fps
Color space                : YUV
Chroma subsampling          : 4:2:0
Bit depth                  : 8 bits
Scan type                  : Progressive
Bits/(Pixel*Frame)          : 0.402
Stream size                : 13.3 GiB (85%)
Writing library            : x264 core 125 r2208 d9d2288
Encoding settings          : cabac=1 / ref=5 / deblock=1:-3:-3 / analyse=0x3:0x133 / me=tesa / subme=11 / psy=1 / psy_rd=0.95:0.00 / mixed_ref=1 / me_range=32 / chroma_me=1 / trellis=2 / 8x8dct=1 / cqm=0 / deadzone=21,11 / fast_pskip=0 / chroma_qp_offset=-2 / threads=12 / lookahead_threads=2 / sliced_threads=0 / nr=0 / decimate=0 / interlaced=0 / bluray_compat=0 / constrained_intra=0 / bframes=7 / b_pyramid=2 / b_adapt=2 / b_bias=0 / direct=3 / weightb=1 / open_gop=0 / weightp=2 / keyint=240 / keyint_min=23 / scenecut=40 / intra_refresh=0 / rc_lookahead=40 / rc=2pass / mbtree=0 / bitrate=14800 / ratetol=1.0 / qcomp=0.60 / qpmin=0 / qpmax=69 / qpstep=4 / cplxblur=20.0 / qblur=0.5 / vbv_maxrate=50000 / vbv_bufsize=62500 / nal_hrd=none / ip_ratio=1.40 / pb_ratio=1.30 / aq=1:0.70
Language                    : English
Default                    : Yes
Forced                      : No

Audio #1
ID                          : 2
Format                      : DTS
Format/Info                : Digital Theater Systems
Mode                        : 16
Format settings, Endianness : Big
Codec ID                    : A_DTS
Duration                    : 2h 11mn
Bit rate mode              : Constant
Bit rate                    : 768 Kbps
Channel(s)                  : 6 channels
Channel positions          : Front: L C R, Side: L R, LFE
Sampling rate              : 48.0 KHz
Frame rate                  : 93.750 fps (512 spf)
Bit depth                  : 24 bits
Compression mode            : Lossy
Stream size                : 721 MiB (4%)
Language                    : Czech
Default                    : Yes
Forced                      : No

Audio #2
ID                          : 3
Format                      : DTS
Format/Info                : Digital Theater Systems
Mode                        : 16
Format settings, Endianness : Big
Codec ID                    : A_DTS
Duration                    : 2h 11mn
Bit rate mode              : Constant
Bit rate                    : 1 509 Kbps
Channel(s)                  : 6 channels
Channel positions          : Front: L C R, Side: L R, LFE
Sampling rate              : 48.0 KHz
Frame rate                  : 93.750 fps (512 spf)
Bit depth                  : 24 bits
Compression mode            : Lossy
Stream size                : 1.38 GiB (9%)
Language                    : English
Default                    : No
Forced                      : No

Text #1
ID                          : 4
Format                      : UTF-8
Codec ID                    : S_TEXT/UTF8
Codec ID/Info              : UTF-8 Plain Text
Title                      : Czech
Language                    : Czech
Default                    : No
Forced                      : Yes

Text #2
ID                          : 5
Format                      : UTF-8
Codec ID                    : S_TEXT/UTF8
Codec ID/Info              : UTF-8 Plain Text
Title                      : Czech
Language                    : Czech
Default                    : No
Forced                      : No

Text #3
ID                          : 6
Format                      : UTF-8
Codec ID                    : S_TEXT/UTF8
Codec ID/Info              : UTF-8 Plain Text
Title                      : English
Language                    : English
Default                    : No
Forced                      : No

Menu
00:00:00.000                : :00:00:00.000
00:09:24.105                : :00:09:24.105
00:15:04.320                : :00:15:04.320
00:23:08.679                : :00:23:08.679
00:29:44.032                : :00:29:44.032
00:36:26.810                : :00:36:26.810
00:42:01.269                : :00:42:01.269
00:49:09.655                : :00:49:09.655
00:56:08.323                : :00:56:08.323
01:00:02.224                : :01:00:02.224
01:09:50.520                : :01:09:50.520
01:15:26.731                : :01:15:26.731
01:20:56.935                : :01:20:56.935
01:29:47.424                : :01:29:47.424
01:37:14.412                : :01:37:14.412
01:43:32.248                : :01:43:32.248
01:49:38.572                : :01:49:38.572
01:56:20.682                : :01:56:20.682
02:00:41.359                : :02:00:41.359
02:09:33.975                : :02:09:33.975

kód:

http://www.fastshare.cz/6243859/ndsdrb0821plb.part1.rar
http://www.fastshare.cz/6243875/ndsdrb0821plb.part2.rar
http://www.fastshare.cz/6243885/ndsdrb0821plb.part3.rar
http://www.fastshare.cz/6243895/ndsdrb0821plb.part4.rar
http://www.fastshare.cz/6243904/ndsdrb0821plb.part5.rar
http://www.fastshare.cz/6243912/ndsdrb0821plb.part6.rar
http://www.fastshare.cz/6243924/ndsdrb0821plb.part7.rar
http://www.fastshare.cz/6243931/ndsdrb0821plb.part8.rar
http://www.fastshare.cz/6243932/ndsdrb0821plb.part9.rar

kód:

https://sdilej.cz/7900517/NDSDRB0821plB.part1.rar
https://sdilej.cz/7900526/NDSDRB0821plB.part3.rar
https://sdilej.cz/7900532/NDSDRB0821plB.part2.rar
https://sdilej.cz/7900537/NDSDRB0821plB.part4.rar
https://sdilej.cz/7900542/NDSDRB0821plB.part5.rar
https://sdilej.cz/7900548/NDSDRB0821plB.part6.rar
https://sdilej.cz/7900559/NDSDRB0821plB.part7.rar
https://sdilej.cz/7900561/NDSDRB0821plB.part9.rar
https://sdilej.cz/7900573/NDSDRB0821plB.part8.rar


Upload 3% na opravu dat

no pass
Návrat hore Goto down
Zobrazit informácie o autorovi
 
Bitevní loď / Battleship (2012)
Zobraziť predchádzajúcu tému Zobraziť nasledujúcu tému Návrat hore 
Strana 1 z 1

Povolenie tohoto fóra:Nemôžete odpovedať na témy v tomto fóre.
Warforum :: Sťahuj :: FILMY-
Prejdi na: