Warforum

stahuj.forumonline.biz
 
DomovFAQHľadaťRegistráciaZoznam užívateľovUžívateľské skupinyPrihlásenie

Share | 
 

 The Purge: Election Year / Očista: Volební rok (2016)

Zobraziť predchádzajúcu tému Zobraziť nasledujúcu tému Goto down 
AutorSpráva
Jack86



Počet príspevkov : 110
Registration date : 10.02.2010

OdoslaťPredmet: The Purge: Election Year / Očista: Volební rok (2016)   Po júl 18, 2016 2:32 am




kód:

http://www.csfd.cz/film/402246-ocista-volebni-rok/prehled/
http://www.imdb.com/title/tt4094724/combined


[size=140]The.Purge.Election.Year.2016.1080p.HC.WEBRip.x264.AAC2.0-STUTTERSHIT + titulky[/size]


Audio: EN
Titulky: CZ


kód:
The.Purge.Election.Year.2016.1080p.HC.WEBRip.x264.AAC2.0-STUTTERSHIT
Format                      : MPEG-4
Format profile              : Base Media
Codec ID                    : isom (isom/iso2/avc1/mp41)
File size                  : 3.65 GiB
Duration                    : 1h 52mn
Overall bit rate            : 4 657 Kbps
Movie name                  : The.Purge.Election.Year.2016.1080p.HC.WEBRip.x264.AAC2.0-STUTTERSHIT
Writing application        : Lavf57.19.100
Comment                    : The.Purge.Election.Year.2016.1080p.HC.WEBRip.x264.AAC2.0-STUTTERSHIT

Video
ID                          : 1
Format                      : AVC
Format/Info                : Advanced Video Codec
Format profile              : High@L4.1
Format settings, CABAC      : Yes
Format settings, ReFrames  : 4 frames
Codec ID                    : avc1
Codec ID/Info              : Advanced Video Coding
Duration                    : 1h 52mn
Bit rate                    : 4 500 Kbps
Width                      : 1 920 pixels
Height                      : 796 pixels
Display aspect ratio        : 2.40:1
Frame rate mode            : Constant
Frame rate                  : 23.976 (23976/1000) fps
Color space                : YUV
Chroma subsampling          : 4:2:0
Bit depth                  : 8 bits
Scan type                  : Progressive
Bits/(Pixel*Frame)          : 0.123
Stream size                : 3.47 GiB (95%)
Title                      : The.Purge.Election.Year.2016.1080p.HC.WEBRip.x264.AAC2.0-STUTTERSHIT
Writing library            : x264 core 148 r2597M e86f3a1
Encoding settings          : cabac=1 / ref=4 / deblock=1:0:0 / analyse=0x3:0x113 / me=umh / subme=8 / psy=1 / psy_rd=1.00:0.00 / mixed_ref=1 / me_range=16 / chroma_me=1 / trellis=1 / 8x8dct=1 / cqm=0 / deadzone=21,11 / fast_pskip=1 / chroma_qp_offset=-2 / threads=40 / lookahead_threads=6 / sliced_threads=0 / nr=0 / decimate=1 / interlaced=0 / bluray_compat=0 / constrained_intra=0 / bframes=3 / b_pyramid=2 / b_adapt=2 / b_bias=0 / direct=3 / weightb=1 / open_gop=0 / weightp=2 / keyint=250 / keyint_min=23 / scenecut=40 / intra_refresh=0 / rc_lookahead=50 / rc=abr / mbtree=1 / bitrate=4500 / ratetol=1.0 / qcomp=0.60 / qpmin=0 / qpmax=69 / qpstep=4 / ip_ratio=1.40 / aq=1:1.00

Audio
ID                          : 2
Format                      : AAC
Format/Info                : Advanced Audio Codec
Format profile              : LC
Codec ID                    : 40
Duration                    : 1h 52mn
Bit rate mode              : Constant
Bit rate                    : 224 Kbps
Channel(s)                  : 2 channels
Channel positions          : Front: L R
Sampling rate              : 48.0 KHz
Frame rate                  : 46.875 fps (1024 spf)
Compression mode            : Lossy
Stream size                : 180 MiB (5%)
Title                      : The.Purge.Election.Year.2016.1080p.HC.WEBRip.x264.AAC2.0-STUTTERSHIT
Language                    : English
Default                    : Yes
Alternate group            : 1

kód:

http://www.fastshare.cz/6198870/the.purge.election.year.2016.1080p.hc.korsub.webrip.x264.aac2.0-stuttershit.mp4
http://www.fastshare.cz/6198871/the.purge.election.year.2016.1080p.hc.korsub.webrip.x264.aac2.0-stuttershit.srt

kód:

http://sdilej.cz/7881840/0Nl2/The.Purge.Election.Year.2016.1080p.HC.KORSUB.WEBRip.x264.AAC2.0_STUTTERSHIT.mp4
https://sdilej.cz/7881847/The.Purge.Election.Year.2016.1080p.HC.KORSUB.WEBRip.x264.AAC2.0-STUTTERSHIT.srt

kód:

http://www.fastshare.cz/6198784/srwch0861yept.rar

kód:

http://sdilej.cz/7881445/ghbp/SRWCH0861YEPT.rar

kód:

http://www.fastshare.cz/6198649/srwch0861yept.part1.rar
http://www.fastshare.cz/6198679/srwch0861yept.part2.rar

kód:

http://sdilej.cz/7881402/kaB1/SRWCH0861YEPT.part1.rar
http://sdilej.cz/7881411/YZec/SRWCH0861YEPT.part2.rar


Upload 3% na opravu dat

no pass
Návrat hore Goto down
Zobrazit informácie o autorovi
 
The Purge: Election Year / Očista: Volební rok (2016)
Zobraziť predchádzajúcu tému Zobraziť nasledujúcu tému Návrat hore 
Strana 1 z 1

Povolenie tohoto fóra:Nemôžete odpovedať na témy v tomto fóre.
Warforum :: Sťahuj :: FILMY-
Prejdi na: