Warforum

stahuj.forumonline.biz
 
DomovFAQHľadaťRegistráciaZoznam užívateľovUžívateľské skupinyPrihlásenie

Share | 
 

 Green Room / Green Room (2015)

Zobraziť predchádzajúcu tému Zobraziť nasledujúcu tému Goto down 
AutorSpráva
Jack86



Počet príspevkov : 110
Registration date : 10.02.2010

OdoslaťPredmet: Green Room / Green Room (2015)   So júl 02, 2016 12:38 am




kód:

http://www.csfd.cz/film/392363-green-room/prehled/
http://www.imdb.com/title/tt4062536/combined


[size=140]Green.Room.2015.1080p.BluRay.x264-DRONES + titulky[/size]


Audio: EN
Titulky: CZ


kód:
Green.Room.2015.1080p.BluRay.x264-DRONES
Format                      : Matroska
Format version              : Version 4 / Version 2
File size                  : 7.65 GiB
Duration                    : 1h 35mn
Overall bit rate            : 11.5 Mbps
Encoded date                : UTC 2016-06-29 16:41:37
Writing application        : mkvmerge v8.3.0 ('Over the Horizon') 64bit
Writing library            : libebml v1.3.1 + libmatroska v1.4.2

Video
ID                          : 1
Format                      : AVC
Format/Info                : Advanced Video Codec
Format profile              : High@L4.1
Format settings, CABAC      : Yes
Format settings, ReFrames  : 5 frames
Codec ID                    : V_MPEG4/ISO/AVC
Duration                    : 1h 35mn
Bit rate                    : 10.0 Mbps
Width                      : 1 920 pixels
Height                      : 800 pixels
Display aspect ratio        : 2.40:1
Frame rate mode            : Constant
Frame rate                  : 23.976 fps
Color space                : YUV
Chroma subsampling          : 4:2:0
Bit depth                  : 8 bits
Scan type                  : Progressive
Bits/(Pixel*Frame)          : 0.272
Stream size                : 6.64 GiB (87%)
Writing library            : x264 core 148 r2692 64f4e24
Encoding settings          : cabac=1 / ref=5 / deblock=1:0:0 / analyse=0x3:0x133 / me=umh / subme=7 / psy=1 / psy_rd=1.00:0.00 / mixed_ref=1 / me_range=16 / chroma_me=1 / trellis=1 / 8x8dct=1 / cqm=0 / deadzone=21,11 / fast_pskip=0 / chroma_qp_offset=-2 / threads=25 / lookahead_threads=4 / sliced_threads=0 / nr=0 / decimate=1 / interlaced=0 / bluray_compat=0 / constrained_intra=0 / bframes=3 / b_pyramid=2 / b_adapt=1 / b_bias=0 / direct=1 / weightb=1 / open_gop=0 / weightp=2 / keyint=250 / keyint_min=23 / scenecut=40 / intra_refresh=0 / rc_lookahead=40 / rc=2pass / mbtree=1 / bitrate=10018 / ratetol=1.0 / qcomp=0.60 / qpmin=0 / qpmax=69 / qpstep=4 / cplxblur=20.0 / qblur=0.5 / ip_ratio=1.40 / aq=1:1.00
Language                    : English
Default                    : Yes
Forced                      : No

Audio
ID                          : 2
Format                      : DTS
Format/Info                : Digital Theater Systems
Mode                        : 16
Format settings, Endianness : Big
Codec ID                    : A_DTS
Duration                    : 1h 35mn
Bit rate mode              : Constant
Bit rate                    : 1 509 Kbps
Channel(s)                  : 6 channels
Channel positions          : Front: L C R, Side: L R, LFE
Sampling rate              : 48.0 KHz
Frame rate                  : 93.750 fps (512 spf)
Bit depth                  : 24 bits
Compression mode            : Lossy
Stream size                : 1.00 GiB (13%)
Language                    : English
Default                    : Yes
Forced                      : No

Menu
00:00:00.000                : en:00:00:00.000
00:07:44.214                : en:00:07:44.214
00:13:51.247                : en:00:13:51.247
00:18:01.163                : en:00:18:01.163
00:24:30.052                : en:00:24:30.052
00:32:01.962                : en:00:32:01.962
00:37:28.163                : en:00:37:28.163
00:45:49.789                : en:00:45:49.789
00:49:17.162                : en:00:49:17.162
00:55:19.524                : en:00:55:19.524
01:00:19.866                : en:01:00:19.866
01:03:34.894                : en:01:03:34.894
01:10:05.201                : en:01:10:05.201
01:13:34.702                : en:01:13:34.702
01:17:52.209                : en:01:17:52.209
01:25:07.561                : en:01:25:07.561


kód:

http://www.fastshare.cz/6123863/db0851rg.part1.rar
http://www.fastshare.cz/6123867/db0851rg.part2.rar
http://www.fastshare.cz/6123877/db0851rg.part3.rar
http://www.fastshare.cz/6123882/db0851rg.part4.rar

kód:

http://sdilej.cz/7865510/QnD_/DB0851RG.part1.rar
http://sdilej.cz/7865522/jzGN/DB0851RG.part3.rar
http://sdilej.cz/7865535/66bM/DB0851RG.part4.rar
http://sdilej.cz/7865550/YE4T/DB0851RG.part2.rar



Upload 3% na opravu dat

no pass
Návrat hore Goto down
Zobrazit informácie o autorovi
 
Green Room / Green Room (2015)
Zobraziť predchádzajúcu tému Zobraziť nasledujúcu tému Návrat hore 
Strana 1 z 1

Povolenie tohoto fóra:Nemôžete odpovedať na témy v tomto fóre.
Warforum :: Sťahuj :: FILMY-
Prejdi na: