Warforum

stahuj.forumonline.biz
 
DomovFAQHľadaťRegistráciaZoznam užívateľovUžívateľské skupinyPrihlásenie

Share | 
 

 Hvězdná brána / Stargate 15th Anniversary Edition (1994)

Zobraziť predchádzajúcu tému Zobraziť nasledujúcu tému Goto down 
AutorSpráva
Jack86



Počet príspevkov : 110
Registration date : 10.02.2010

OdoslaťPredmet: Hvězdná brána / Stargate 15th Anniversary Edition (1994)   Po jún 27, 2016 7:50 pm




kód:

http://www.csfd.cz/film/2576-hvezdna-brana/prehled/
http://www.imdb.com/title/tt0111282/combined


[size=140]Stargate.1994.The.15th.Anniversary.Edition.Extended.Cut.Bluray.1080p.DTSHD7.1.x264.dxva-FraMeSToR.CZ-GOGO[/size]


Audio: EN/CZ
Titulky: CZ/CZ (F)


kód:
Stargate.1994.The.15th.Anniversary.Edition.Extended.Cut.Bluray.1080p.DTSHD7.1.x264.dxva-FraMeSToR.CZ-GOGO
Format                      : Matroska
Format version              : Version 2
File size                  : 15.1 GiB
Duration                    : 2h 9mn
Overall bit rate            : 16.6 Mbps
Encoded date                : UTC 2010-03-03 00:49:42
Writing application        : mkvmerge v3.0.0 ('Hang up your Hang-Ups') built on Dec 12 2009 15:20:35
Writing library            : libebml v0.7.9 + libmatroska v0.8.1

Video
ID                          : 1
Format                      : AVC
Format/Info                : Advanced Video Codec
Format profile              : High@L4.1
Format settings, CABAC      : Yes
Format settings, ReFrames  : 4 frames
Codec ID                    : V_MPEG4/ISO/AVC
Duration                    : 2h 9mn
Bit rate                    : 13.7 Mbps
Width                      : 1 920 pixels
Height                      : 800 pixels
Display aspect ratio        : 2.40:1
Frame rate mode            : Constant
Frame rate                  : 23.976 fps
Color space                : YUV
Chroma subsampling          : 4:2:0
Bit depth                  : 8 bits
Scan type                  : Progressive
Bits/(Pixel*Frame)          : 0.371
Stream size                : 12.0 GiB (80%)
Title                      : FraMeSToR's Stargate 15th Anniversary Edition
Writing library            : x264 core 80 r1376M 3feaec2
Encoding settings          : cabac=1 / ref=5 / deblock=1:-4:-4 / analyse=0x3:0x113 / me=umh / subme=10 / psy=1 / psy_rd=1.0:0.0 / mixed_ref=1 / me_range=48 / chroma_me=1 / trellis=2 / 8x8dct=1 / cqm=0 / deadzone=21,11 / fast_pskip=1 / chroma_qp_offset=-2 / threads=12 / sliced_threads=0 / nr=0 / decimate=1 / mbaff=0 / constrained_intra=0 / bframes=5 / b_pyramid=1 / b_adapt=2 / b_bias=0 / direct=2 / wpredb=1 / wpredp=2 / keyint=250 / keyint_min=25 / scenecut=40 / rc_lookahead=60 / rc=2pass / mbtree=1 / bitrate=13665 / ratetol=2.0 / qcomp=0.70 / qpmin=10 / qpmax=51 / qpstep=4 / cplxblur=20.0 / qblur=0.5 / vbv_maxrate=50000 / vbv_bufsize=50000 / ip_ratio=1.40 / aq=1:0.80
Language                    : English
Default                    : Yes
Forced                      : No

Audio #1
ID                          : 2
Format                      : DTS
Format/Info                : Digital Theater Systems
Mode                        : 16
Format settings, Endianness : Big
Codec ID                    : A_DTS
Duration                    : 2h 9mn
Bit rate mode              : Constant
Bit rate                    : 1 510 Kbps
Channel(s)                  : 6 channels
Channel positions          : Front: L C R, Side: L R, LFE
Sampling rate              : 48.0 KHz
Frame rate                  : 93.750 fps (512 spf)
Bit depth                  : 24 bits
Compression mode            : Lossy
Stream size                : 1.37 GiB (9%)
Title                      : DTS CZ@1,5Mb/s_created by gogomiro
Language                    : Czech
Default                    : Yes
Forced                      : No

Audio #2
ID                          : 3
Format                      : DTS
Format/Info                : Digital Theater Systems
Mode                        : 16
Format settings, Endianness : Big
Codec ID                    : A_DTS
Duration                    : 2h 9mn
Bit rate mode              : Constant
Bit rate                    : 1 510 Kbps
Channel(s)                  : 6 channels
Channel positions          : Front: L C R, Side: L R, LFE
Sampling rate              : 48.0 KHz
Frame rate                  : 93.750 fps (512 spf)
Bit depth                  : 24 bits
Compression mode            : Lossy
Stream size                : 1.37 GiB (9%)
Title                      : DTS EN@1,5Mb/s
Language                    : English
Default                    : No
Forced                      : No

Text #1
ID                          : 4
Format                      : UTF-8
Codec ID                    : S_TEXT/UTF8
Codec ID/Info              : UTF-8 Plain Text
Title                      : cz titulky
Language                    : Czech
Default                    : No
Forced                      : No

Text #2
ID                          : 5
Format                      : UTF-8
Codec ID                    : S_TEXT/UTF8
Codec ID/Info              : UTF-8 Plain Text
Title                      : forced cz titulky
Language                    : Czech
Default                    : Yes
Forced                      : No

Text #3
ID                          : 6
Format                      : UTF-8
Codec ID                    : S_TEXT/UTF8
Codec ID/Info              : UTF-8 Plain Text
Title                      : en subtitles
Language                    : English
Default                    : No
Forced                      : No

Menu
00:00:00.000                : en:00:00:00.000
00:04:02.951                : en:00:04:02.951
00:06:43.361                : en:00:06:43.361
00:10:26.626                : en:00:10:26.626
00:12:10.438                : en:00:12:10.438
00:21:37.087                : en:00:21:37.087
00:28:52.189                : en:00:28:52.189
00:33:25.420                : en:00:33:25.420
00:36:07.916                : en:00:36:07.916
00:44:41.971                : en:00:44:41.971
00:50:42.790                : en:00:50:42.790
00:55:38.001                : en:00:55:38.001
01:01:28.935                : en:01:01:28.935
01:12:58.791                : en:01:12:58.791
01:16:52.024                : en:01:16:52.024
01:24:01.119                : en:01:24:01.119
01:27:06.596                : en:01:27:06.596
01:31:53.216                : en:01:31:53.216
01:43:12.644                : en:01:43:12.644
01:45:43.462                : en:01:45:43.462
01:49:32.065                : en:01:49:32.065
01:58:19.133                : en:01:58:19.133
02:01:35.454                : en:02:01:35.454
02:03:27.233                : en:02:03:27.233

kód:

http://www.fastshare.cz/6112006/gfhd08bceeat51t49s.part1.rar
http://www.fastshare.cz/6112022/gfhd08bceeat51t49s.part2.rar
http://www.fastshare.cz/6112041/gfhd08bceeat51t49s.part3.rar
http://www.fastshare.cz/6112048/gfhd08bceeat51t49s.part4.rar
http://www.fastshare.cz/6112054/gfhd08bceeat51t49s.part5.rar
http://www.fastshare.cz/6112072/gfhd08bceeat51t49s.part6.rar
http://www.fastshare.cz/6112082/gfhd08bceeat51t49s.part7.rar
http://www.fastshare.cz/6112089/gfhd08bceeat51t49s.part8.rar

kód:

http://file-share.top/file/223553/gfhd08bceeat51t49s-part1-rar
http://file-share.top/file/223557/gfhd08bceeat51t49s-part2-rar
http://file-share.top/file/223563/gfhd08bceeat51t49s-part3-rar
http://file-share.top/file/223568/gfhd08bceeat51t49s-part4-rar
http://file-share.top/file/223571/gfhd08bceeat51t49s-part5-rar
http://file-share.top/file/223572/gfhd08bceeat51t49s-part6-rar
http://file-share.top/file/223576/gfhd08bceeat51t49s-part7-rar
http://file-share.top/file/223580/gfhd08bceeat51t49s-part8-rar


Upload 3% na opravu dat

no pass
Návrat hore Goto down
Zobrazit informácie o autorovi
 
Hvězdná brána / Stargate 15th Anniversary Edition (1994)
Zobraziť predchádzajúcu tému Zobraziť nasledujúcu tému Návrat hore 
Strana 1 z 1

Povolenie tohoto fóra:Nemôžete odpovedať na témy v tomto fóre.
Warforum :: Sťahuj :: FILMY-
Prejdi na: