Warforum

stahuj.forumonline.biz
 
DomovFAQHľadaťRegistráciaZoznam užívateľovUžívateľské skupinyPrihlásenie

Share | 
 

 Muž z oceli / Man of Steel (2013)

Zobraziť predchádzajúcu tému Zobraziť nasledujúcu tému Goto down 
AutorSpráva
Jack86



Počet príspevkov : 110
Registration date : 10.02.2010

OdoslaťPredmet: Muž z oceli / Man of Steel (2013)   Po jún 27, 2016 6:04 pm




kód:

http://www.csfd.cz/film/225387-muz-z-oceli/prehled/
http://www.imdb.com/title/tt0770828/combined


[size=140]Man.of.Steel.2013.1080p.BluRay.x264.DTS-WiKi[/size]


Audio: EN/CZ
Titulky: CZ


kód:
Man.of.Steel.2013.1080p.BluRay.x264.DTS-WiKi
Format                      : Matroska
Format version              : Version 4 / Version 2
File size                  : 16.4 GiB
Duration                    : 2h 23mn
Overall bit rate            : 16.4 Mbps
Encoded date                : UTC 2013-10-19 10:59:40
Writing application        : mkvmerge v6.4.1 ('Omega Point') built on Sep 16 2013 22:05:10
Writing library            : libebml v1.3.0 + libmatroska v1.4.1

Video
ID                          : 1
Format                      : AVC
Format/Info                : Advanced Video Codec
Format profile              : High@L4.1
Format settings, CABAC      : Yes
Format settings, ReFrames  : 5 frames
Codec ID                    : V_MPEG4/ISO/AVC
Duration                    : 2h 23mn
Bit rate                    : 14.5 Mbps
Width                      : 1 920 pixels
Height                      : 800 pixels
Display aspect ratio        : 2.40:1
Frame rate mode            : Constant
Frame rate                  : 23.976 (24000/1001) fps
Color space                : YUV
Chroma subsampling          : 4:2:0
Bit depth                  : 8 bits
Scan type                  : Progressive
Bits/(Pixel*Frame)          : 0.394
Stream size                : 14.2 GiB (86%)
Writing library            : x264 core 136 r2348+704+51 d1baef6 tMod [8-bit@all X86_64]
Encoding settings          : cabac=1 / ref=5 / deblock=1:-3:-3 / analyse=0x3:0x133 / me=umh / subme=11 / psy=1 / fade_compensate=0.00 / psy_rd=1.05:0.15 / mixed_ref=1 / me_range=64 / chroma_me=1 / trellis=2 / 8x8dct=1 / cqm=0 / deadzone=21,11 / fast_pskip=0 / chroma_qp_offset=-3 / threads=12 / lookahead_threads=3 / sliced_threads=0 / nr=0 / decimate=0 / interlaced=0 / bluray_compat=0 / constrained_intra=0 / fgo=0 / bframes=10 / b_pyramid=2 / b_adapt=2 / b_bias=0 / direct=3 / weightb=1 / open_gop=0 / weightp=2 / keyint=250 / keyint_min=23 / scenecut=40 / intra_refresh=0 / rc_lookahead=120 / rc=2pass / mbtree=1 / bitrate=14498 / ratetol=1.0 / qcomp=0.65 / qpmin=0:0:0 / qpmax=69:69:69 / qpstep=4 / cplxblur=20.0 / qblur=0.5 / vbv_maxrate=50000 / vbv_bufsize=50000 / nal_hrd=none / ip_ratio=1.40 / aq=1:0.75 / aq-sensitivity=10.00 / aq-factor=1.00:1.00:1.00 / aq2=0 / aq3=0
Language                    : English
Default                    : Yes
Forced                      : No
Color range                : Limited
Matrix coefficients        : BT.709

Audio #1
ID                          : 2
Format                      : AC-3
Format/Info                : Audio Coding 3
Mode extension              : CM (complete main)
Format settings, Endianness : Big
Codec ID                    : A_AC3
Duration                    : 2h 23mn
Bit rate mode              : Constant
Bit rate                    : 384 Kbps
Channel(s)                  : 6 channels
Channel positions          : Front: L C R, Side: L R, LFE
Sampling rate              : 48.0 KHz
Frame rate                  : 31.250 fps (1536 spf)
Compression mode            : Lossy
Stream size                : 393 MiB (2%)
Language                    : Czech
Default                    : Yes
Forced                      : No

Audio #2
ID                          : 3
Format                      : DTS
Format/Info                : Digital Theater Systems
Mode                        : 16
Format settings, Endianness : Big
Codec ID                    : A_DTS
Duration                    : 2h 23mn
Bit rate mode              : Constant
Bit rate                    : 1 509 Kbps
Channel(s)                  : 6 channels
Channel positions          : Front: L C R, Side: L R, LFE
Sampling rate              : 48.0 KHz
Frame rate                  : 93.750 fps (512 spf)
Bit depth                  : 24 bits
Compression mode            : Lossy
Stream size                : 1.51 GiB (9%)
Language                    : English
Default                    : No
Forced                      : No

Text #1
ID                          : 4
Format                      : UTF-8
Codec ID                    : S_TEXT/UTF8
Codec ID/Info              : UTF-8 Plain Text
Title                      : Czech
Language                    : Czech
Default                    : No
Forced                      : No

Text #2
ID                          : 5
Format                      : UTF-8
Codec ID                    : S_TEXT/UTF8
Codec ID/Info              : UTF-8 Plain Text
Title                      : English
Language                    : English
Default                    : No
Forced                      : No

Menu
00:00:00.000                : en:00:00:00.000
00:11:16.968                : en:00:11:16.968
00:20:01.450                : en:00:20:01.450
00:30:09.474                : en:00:30:09.474
00:39:21.609                : en:00:39:21.609
00:48:57.643                : en:00:48:57.643
00:59:03.415                : en:00:59:03.415
01:08:57.884                : en:01:08:57.884
01:17:35.109                : en:01:17:35.109
01:28:36.186                : en:01:28:36.186
01:40:47.792                : en:01:40:47.792
01:50:55.858                : en:01:50:55.858
02:00:53.580                : en:02:00:53.580
02:10:13.556                : en:02:10:13.556
02:12:49.920                : en:02:12:49.920

kód:

http://www.fastshare.cz/6111288/wdrb0831som.part01.rar
http://www.fastshare.cz/6111300/wdrb0831som.part02.rar
http://www.fastshare.cz/6111303/wdrb0831som.part03.rar
http://www.fastshare.cz/6111308/wdrb0831som.part04.rar
http://www.fastshare.cz/6111314/wdrb0831som.part05.rar
http://www.fastshare.cz/6111323/wdrb0831som.part06.rar
http://www.fastshare.cz/6111326/wdrb0831som.part07.rar
http://www.fastshare.cz/6111333/wdrb0831som.part08.rar
http://www.fastshare.cz/6111335/wdrb0831som.part09.rar

kód:

http://file-share.top/file/223222/wdrb0831som-part01-rar
http://file-share.top/file/223227/wdrb0831som-part02-rar
http://file-share.top/file/223232/wdrb0831som-part03-rar
http://file-share.top/file/223237/wdrb0831som-part04-rar
http://file-share.top/file/223242/wdrb0831som-part05-rar
http://file-share.top/file/223246/wdrb0831som-part06-rar
http://file-share.top/file/223251/wdrb0831som-part07-rar
http://file-share.top/file/223254/wdrb0831som-part08-rar
http://file-share.top/file/223256/wdrb0831som-part09-rar


Upload 3% na opravu dat

no pass
Návrat hore Goto down
Zobrazit informácie o autorovi
 
Muž z oceli / Man of Steel (2013)
Zobraziť predchádzajúcu tému Zobraziť nasledujúcu tému Návrat hore 
Strana 1 z 1

Povolenie tohoto fóra:Nemôžete odpovedať na témy v tomto fóre.
Warforum :: Sťahuj :: FILMY-
Prejdi na: