Warforum

stahuj.forumonline.biz
 
DomovFAQHľadaťRegistráciaZoznam užívateľovUžívateľské skupinyPrihlásenie

Share | 
 

 King Kong (2005)

Zobraziť predchádzajúcu tému Zobraziť nasledujúcu tému Goto down 
AutorSpráva
Jack86



Počet príspevkov : 110
Registration date : 10.02.2010

OdoslaťPredmet: King Kong (2005)   Ne jún 26, 2016 5:55 am




kód:

http://www.csfd.cz/film/116618-king-kong/prehled/
http://www.imdb.com/title/tt0360717/combined


[size=140]King.Kong.2005.Extended.Cut.1080p.HDDVD-BluRay.DTS.x264-ESiR[/size]


Audio: EN/CZ
Titulky: CZ/CZ (F)


kód:
King.Kong.2005.Extended.Cut.1080p.HDDVD-BluRay.DTS.x264-ESiR
Format                      : Matroska
Format version              : Version 1
File size                  : 19.7 GiB
Duration                    : 3h 20mn
Overall bit rate mode      : Variable
Overall bit rate            : 14.1 Mbps
Encoded date                : UTC 2009-02-25 12:30:50
Writing application        : mkvmerge v2.4.0 ('Fumbling Towards Ecstasy') built on Oct 11 2008 20:13:15
Writing library            : libebml v0.7.7 + libmatroska v0.8.1
Attachments                : CronosPro-Semibold.ttf / CronosPro-SemiboldIt.ttf / CronosPro-Bold.ttf

Video
ID                          : 1
Format                      : AVC
Format/Info                : Advanced Video Codec
Format profile              : High@L4.1
Format settings, CABAC      : Yes
Format settings, ReFrames  : 5 frames
Codec ID                    : V_MPEG4/ISO/AVC
Duration                    : 3h 20mn
Bit rate                    : 11.0 Mbps
Width                      : 1 920 pixels
Height                      : 816 pixels
Display aspect ratio        : 2.35:1
Frame rate mode            : Constant
Frame rate                  : 23.976 (24000/1001) fps
Color space                : YUV
Chroma subsampling          : 4:2:0
Bit depth                  : 8 bits
Scan type                  : Progressive
Bits/(Pixel*Frame)          : 0.293
Stream size                : 15.0 GiB (76%)
Writing library            : x264 core 66 r1101M b69548a
Encoding settings          : cabac=1 / ref=5 / deblock=1:-3:-3 / analyse=0x3:0x113 / me=umh / subme=9 / psy_rd=0.8:0.8 / mixed_ref=1 / me_range=32 / chroma_me=1 / trellis=2 / 8x8dct=1 / cqm=2 / deadzone=21,11 / chroma_qp_offset=-4 / threads=3 / nr=0 / decimate=1 / mbaff=0 / bframes=3 / b_pyramid=1 / b_adapt=2 / b_bias=0 / direct=3 / wpredb=1 / keyint=250 / keyint_min=25 / scenecut=40(pre) / rc=2pass / bitrate=11000 / ratetol=1.0 / qcomp=0.60 / qpmin=10 / qpmax=51 / qpstep=4 / cplxblur=20.0 / qblur=0.5 / ip_ratio=1.40 / pb_ratio=1.30 / aq=1:0.80
Language                    : English
Default                    : Yes
Forced                      : No

Audio #1
ID                          : 2
Format                      : DTS
Format/Info                : Digital Theater Systems
Mode                        : 16
Format settings, Endianness : Big
Codec ID                    : A_DTS
Duration                    : 3h 20mn
Bit rate mode              : Constant
Bit rate                    : 1 510 Kbps
Channel(s)                  : 6 channels
Channel positions          : Front: L C R, Side: L R, LFE
Sampling rate              : 48.0 KHz
Frame rate                  : 93.750 fps (512 spf)
Bit depth                  : 24 bits
Compression mode            : Lossy
Stream size                : 2.11 GiB (11%)
Title                      : DTS CZ @ 1,5Mb/s
Language                    : Czech
Default                    : Yes
Forced                      : No

Audio #2
ID                          : 3
Format                      : DTS
Format/Info                : Digital Theater Systems
Mode                        : 16
Format settings, Endianness : Big
Codec ID                    : A_DTS
Duration                    : 3h 20mn
Bit rate mode              : Constant
Bit rate                    : 1 509 Kbps
Channel(s)                  : 6 channels
Channel positions          : Front: L C R, Side: L R, LFE
Sampling rate              : 48.0 KHz
Frame rate                  : 93.750 fps (512 spf)
Bit depth                  : 24 bits
Compression mode            : Lossy
Stream size                : 2.11 GiB (11%)
Title                      : DTS, 5.1, 1536 kbps
Language                    : English
Default                    : No
Forced                      : No

Audio #3
ID                          : 4
Format                      : Vorbis
Format settings, Floor      : 1
Codec ID                    : A_VORBIS
Duration                    : 3h 20mn
Bit rate mode              : Variable
Bit rate                    : 80.0 Kbps
Channel(s)                  : 2 channels
Sampling rate              : 48.0 KHz
Compression mode            : Lossy
Stream size                : 115 MiB (1%)
Title                      : Feature Commentary with Director/Co-Writer/Producer Peter Jackson and Co-Writer/Producer Philippe Boyens
Writing library            : libVorbis 1.2 (UTC 2007-06-22)
Language                    : English
Default                    : No
Forced                      : No

Text #1
ID                          : 5
Format                      : UTF-8
Codec ID                    : S_TEXT/UTF8
Codec ID/Info              : UTF-8 Plain Text
Title                      : titulky k neprelozenym scenkam
Language                    : Czech
Default                    : Yes
Forced                      : No

Text #2
ID                          : 6
Format                      : UTF-8
Codec ID                    : S_TEXT/UTF8
Codec ID/Info              : UTF-8 Plain Text
Title                      : kompletne cz titulky
Language                    : Czech
Default                    : No
Forced                      : No

Text #3
ID                          : 7
Format                      : ASS
Codec ID                    : S_TEXT/ASS
Codec ID/Info              : Advanced Sub Station Alpha
Compression mode            : Lossless
Language                    : French
Default                    : No
Forced                      : No

Text #4
ID                          : 8
Format                      : ASS
Codec ID                    : S_TEXT/ASS
Codec ID/Info              : Advanced Sub Station Alpha
Compression mode            : Lossless
Language                    : Romanian
Default                    : No
Forced                      : No

Text #5
ID                          : 9
Format                      : ASS
Codec ID                    : S_TEXT/ASS
Codec ID/Info              : Advanced Sub Station Alpha
Compression mode            : Lossless
Language                    : Slovenian
Default                    : No
Forced                      : No

Text #6
ID                          : 10
Format                      : ASS
Codec ID                    : S_TEXT/ASS
Codec ID/Info              : Advanced Sub Station Alpha
Compression mode            : Lossless
Language                    : Spanish
Default                    : No
Forced                      : No

Text #7
ID                          : 11
Format                      : ASS
Codec ID                    : S_TEXT/ASS
Codec ID/Info              : Advanced Sub Station Alpha
Compression mode            : Lossless
Language                    : English
Default                    : No
Forced                      : No

kód:

http://www.fastshare.cz/6108347/edbdh08ce50kk.part01.rar
http://www.fastshare.cz/6108360/edbdh08ce50kk.part02.rar
http://www.fastshare.cz/6108371/edbdh08ce50kk.part03.rar
http://www.fastshare.cz/6108376/edbdh08ce50kk.part04.rar
http://www.fastshare.cz/6108381/edbdh08ce50kk.part05.rar
http://www.fastshare.cz/6108386/edbdh08ce50kk.part06.rar
http://www.fastshare.cz/6108395/edbdh08ce50kk.part07.rar
http://www.fastshare.cz/6108405/edbdh08ce50kk.part08.rar
http://www.fastshare.cz/6108411/edbdh08ce50kk.part09.rar
http://www.fastshare.cz/6108415/edbdh08ce50kk.part10.rar
http://www.fastshare.cz/6108416/edbdh08ce50kk.part11.rar

kód:

http://file-share.top/file/221913/edbdh08ce50kk-part01-rar
http://file-share.top/file/221920/edbdh08ce50kk-part02-rar
http://file-share.top/file/221926/edbdh08ce50kk-part03-rar
http://file-share.top/file/221933/edbdh08ce50kk-part04-rar
http://file-share.top/file/221937/edbdh08ce50kk-part05-rar
http://file-share.top/file/221943/edbdh08ce50kk-part06-rar
http://file-share.top/file/221949/edbdh08ce50kk-part07-rar
http://file-share.top/file/221953/edbdh08ce50kk-part08-rar
http://file-share.top/file/221958/edbdh08ce50kk-part09-rar
http://file-share.top/file/221963/edbdh08ce50kk-part10-rar
http://file-share.top/file/221964/edbdh08ce50kk-part11-rar


Upload 3% na opravu dat

no pass
Návrat hore Goto down
Zobrazit informácie o autorovi
 
King Kong (2005)
Zobraziť predchádzajúcu tému Zobraziť nasledujúcu tému Návrat hore 
Strana 1 z 1

Povolenie tohoto fóra:Nemôžete odpovedať na témy v tomto fóre.
Warforum :: Sťahuj :: FILMY-
Prejdi na: