Warforum

stahuj.forumonline.biz
 
DomovFAQHľadaťRegistráciaZoznam užívateľovUžívateľské skupinyPrihlásenie

Share | 
 

 Avatar (2009)

Zobraziť predchádzajúcu tému Zobraziť nasledujúcu tému Goto down 
AutorSpráva
Jack86



Počet príspevkov : 110
Registration date : 10.02.2010

OdoslaťPredmet: Avatar (2009)   So jún 25, 2016 5:53 am




kód:

http://www.csfd.cz/film/228329-avatar/prehled/
http://www.imdb.com/title/tt0499549/combined


[size=140]Avatar.Extended.Collector's.Cut.2010.1080p.Bluray.DTS-HDMA.x264.dxva-FraMeSToR.CZ-GOGO[/size]


Audio: EN/CZ
Titulky: CZ/CZ (F)


kód:
Avatar.Extended.Collector's.Cut.2010.1080p.Bluray.DTS-HDMA.x264.dxva-FraMeSToR.CZ-GOGO
Format                      : Matroska
Format version              : Version 2
File size                  : 27.5 GiB
Duration                    : 2h 58mn
Overall bit rate            : 22.1 Mbps
Encoded date                : UTC 2010-12-26 17:49:15
Writing application        : mkvmerge v4.0.0 ('The Stars were mine') built on Jun  5 2010 17:44:09
Writing library            : libebml v1.0.0 + libmatroska v1.0.0

Video
ID                          : 1
Format                      : AVC
Format/Info                : Advanced Video Codec
Format profile              : High@L4.1
Format settings, CABAC      : Yes
Format settings, ReFrames  : 4 frames
Codec ID                    : V_MPEG4/ISO/AVC
Duration                    : 2h 58mn
Bit rate                    : 17.8 Mbps
Width                      : 1 920 pixels
Height                      : 1 080 pixels
Display aspect ratio        : 16:9
Frame rate mode            : Constant
Frame rate                  : 23.976 fps
Color space                : YUV
Chroma subsampling          : 4:2:0
Bit depth                  : 8 bits
Scan type                  : Progressive
Bits/(Pixel*Frame)          : 0.358
Stream size                : 21.6 GiB (79%)
Title                      : Avatar.Extended.Collector's.Cut.2010.Bluray.1080p.DTS-HDMA.x264.dxva-FraMeSToR.CZ-GOGO
Writing library            : x264 core 107 r1766 f9f0035
Encoding settings          : cabac=1 / ref=4 / deblock=1:-1:-1 / analyse=0x3:0x113 / me=umh / subme=10 / psy=1 / psy_rd=1.00:0.00 / mixed_ref=1 / me_range=64 / chroma_me=1 / trellis=2 / 8x8dct=1 / cqm=0 / deadzone=21,11 / fast_pskip=1 / chroma_qp_offset=-2 / threads=12 / sliced_threads=0 / nr=0 / decimate=1 / interlaced=0 / constrained_intra=0 / bframes=5 / b_pyramid=2 / b_adapt=2 / b_bias=0 / direct=1 / weightb=1 / open_gop=0 / weightp=2 / keyint=240 / keyint_min=23 / scenecut=40 / intra_refresh=0 / rc_lookahead=40 / rc=2pass / mbtree=1 / bitrate=17794 / ratetol=1.0 / qcomp=0.70 / qpmin=10 / qpmax=51 / qpstep=4 / cplxblur=20.0 / qblur=0.5 / vbv_maxrate=38000 / vbv_bufsize=30000 / ip_ratio=1.40 / aq=1:1.00 / nal_hrd=none
Language                    : English
Default                    : Yes
Forced                      : No

Audio #1
ID                          : 2
Format                      : DTS
Format/Info                : Digital Theater Systems
Mode                        : 16
Format settings, Endianness : Big
Codec ID                    : A_DTS
Duration                    : 2h 58mn
Bit rate mode              : Constant
Bit rate                    : 1 509 Kbps
Channel(s)                  : 6 channels
Channel positions          : Front: L C R, Side: L R, LFE
Sampling rate              : 48.0 KHz
Frame rate                  : 93.750 fps (512 spf)
Bit depth                  : 24 bits
Compression mode            : Lossy
Stream size                : 1.88 GiB (7%)
Title                      : DTS CZ@1,5Mb/s_created by gogomiro
Language                    : Czech
Default                    : Yes
Forced                      : No

Audio #2
ID                          : 3
Format                      : DTS
Format/Info                : Digital Theater Systems
Mode                        : 16
Format settings, Endianness : Big
Codec ID                    : A_DTS
Duration                    : 2h 58mn
Bit rate mode              : Constant
Bit rate                    : 1 509 Kbps
Channel(s)                  : 6 channels
Channel positions          : Front: L C R, Side: L R, LFE
Sampling rate              : 48.0 KHz
Frame rate                  : 93.750 fps (512 spf)
Bit depth                  : 24 bits
Compression mode            : Lossy
Stream size                : 1.88 GiB (7%)
Title                      : DTS EN@1,5Mb/s
Language                    : English
Default                    : No
Forced                      : No

Audio #3
ID                          : 4
Format                      : AC-3
Format/Info                : Audio Coding 3
Mode extension              : CM (complete main)
Format settings, Endianness : Big
Codec ID                    : A_AC3
Duration                    : 2h 58mn
Bit rate mode              : Constant
Bit rate                    : 640 Kbps
Channel(s)                  : 6 channels
Channel positions          : Front: L C R, Side: L R, LFE
Sampling rate              : 48.0 KHz
Frame rate                  : 31.250 fps (1536 spf)
Compression mode            : Lossy
Stream size                : 816 MiB (3%)
Title                      : DD 5.1 CZ@640Kbps_created by gogomiro
Language                    : Czech
Default                    : No
Forced                      : No

Audio #4
ID                          : 5
Format                      : AC-3
Format/Info                : Audio Coding 3
Mode extension              : CM (complete main)
Format settings, Endianness : Big
Codec ID                    : A_AC3
Duration                    : 2h 58mn
Bit rate mode              : Constant
Bit rate                    : 640 Kbps
Channel(s)                  : 6 channels
Channel positions          : Front: L C R, Side: L R, LFE
Sampling rate              : 48.0 KHz
Frame rate                  : 31.250 fps (1536 spf)
Compression mode            : Lossy
Stream size                : 816 MiB (3%)
Title                      : DD 5.1 EN@640Kbps
Language                    : English
Default                    : No
Forced                      : No

Text #1
ID                          : 6
Format                      : ASS
Codec ID                    : S_TEXT/ASS
Codec ID/Info              : Advanced Sub Station Alpha
Compression mode            : Lossless
Title                      : forced cz titulky Na'vi (font/ass)
Language                    : Czech
Default                    : Yes
Forced                      : No

Text #2
ID                          : 7
Format                      : ASS
Codec ID                    : S_TEXT/ASS
Codec ID/Info              : Advanced Sub Station Alpha
Compression mode            : Lossless
Title                      : komplet cz titulky (font/ass)
Language                    : Czech
Default                    : No
Forced                      : No

Text #3
ID                          : 8
Format                      : UTF-8
Codec ID                    : S_TEXT/UTF8
Codec ID/Info              : UTF-8 Plain Text
Title                      : forced cz titulky Na'vi
Language                    : Czech
Default                    : No
Forced                      : No

Text #4
ID                          : 9
Format                      : UTF-8
Codec ID                    : S_TEXT/UTF8
Codec ID/Info              : UTF-8 Plain Text
Title                      : komplet cz titulky z bluray
Language                    : Czech
Default                    : No
Forced                      : No

Text #5
ID                          : 10
Format                      : UTF-8
Codec ID                    : S_TEXT/UTF8
Codec ID/Info              : UTF-8 Plain Text
Language                    : English
Default                    : No
Forced                      : No

Text #6
ID                          : 11
Format                      : UTF-8
Codec ID                    : S_TEXT/UTF8
Codec ID/Info              : UTF-8 Plain Text
Language                    : Dutch
Default                    : No
Forced                      : No

Menu
00:00:00.000                : en:00:00:00.000
00:05:25.575                : en:00:05:25.575
00:10:12.278                : en:00:10:12.278
00:10:24.457                : en:00:10:24.457
00:10:37.303                : en:00:10:37.303
00:11:47.916                : en:00:11:47.916
00:15:59.208                : en:00:15:59.208
00:17:54.782                : en:00:17:54.782
00:23:54.892                : en:00:23:54.892
00:27:54.548                : en:00:27:54.548
00:28:02.556                : en:00:28:02.556
00:28:45.223                : en:00:28:45.223
00:30:14.021                : en:00:30:14.021
00:30:27.617                : en:00:30:27.617
00:32:04.464                : en:00:32:04.464
00:32:27.904                : en:00:32:27.904
00:37:16.526                : en:00:37:16.526
00:39:08.054                : en:00:39:08.054
00:41:18.476                : en:00:41:18.476
00:47:43.319                : en:00:47:43.319
00:48:09.178                : en:00:48:09.178
00:49:16.912                : en:00:49:16.912
00:53:05.015                : en:00:53:05.015
00:54:22.009                : en:00:54:22.009
00:55:42.214                : en:00:55:42.214
00:57:44.044                : en:00:57:44.044
00:58:32.050                : en:00:58:32.050
01:01:09.416                : en:01:01:09.416
01:03:09.619                : en:01:03:09.619
01:03:57.208                : en:01:03:57.208
01:07:03.227                : en:01:07:03.227
01:09:40.635                : en:01:09:40.635
01:11:50.222                : en:01:11:50.222
01:15:18.889                : en:01:15:18.889
01:15:53.799                : en:01:15:53.799
01:17:32.231                : en:01:17:32.231
01:18:07.891                : en:01:18:07.891
01:22:38.120                : en:01:22:38.120
01:25:59.488                : en:01:25:59.488
01:26:12.709                : en:01:26:12.709
01:27:42.299                : en:01:27:42.299
01:27:54.436                : en:01:27:54.436
01:33:00.408                : en:01:33:00.408
01:36:03.424                : en:01:36:03.424
01:37:36.642                : en:01:37:36.642
01:37:36.893                : en:01:37:36.893
01:44:15.291                : en:01:44:15.291
01:46:49.236                : en:01:46:49.236
01:48:14.029                : en:01:48:14.029
01:48:58.198                : en:01:48:58.198
01:50:02.596                : en:01:50:02.596
01:51:53.582                : en:01:51:53.582
01:58:30.895                : en:01:58:30.895
02:02:13.284                : en:02:02:13.284
02:07:51.664                : en:02:07:51.664
02:09:30.554                : en:02:09:30.554
02:12:36.615                : en:02:12:36.615
02:16:03.363                : en:02:16:03.363
02:19:31.655                : en:02:19:31.655
02:23:59.631                : en:02:23:59.631
02:30:05.079                : en:02:30:05.079
02:32:13.291                : en:02:32:13.291
02:32:59.212                : en:02:32:59.212
02:33:56.852                : en:02:33:56.852
02:34:52.908                : en:02:34:52.908
02:40:02.259                : en:02:40:02.259
02:40:45.886                : en:02:40:45.886
02:41:03.987                : en:02:41:03.987
02:45:33.215                : en:02:45:33.215
02:46:30.814                : en:02:46:30.814
02:46:48.498                : en:02:46:48.498
02:48:56.793                : en:02:48:56.793
02:49:11.725                : en:02:49:11.725
02:51:32.073                : en:02:51:32.073

kód:

http://www.fastshare.cz/6106085/gfmhdb0801ccea.part01.rar
http://www.fastshare.cz/6106095/gfmhdb0801ccea.part02.rar
http://www.fastshare.cz/6106105/gfmhdb0801ccea.part03.rar
http://www.fastshare.cz/6106111/gfmhdb0801ccea.part04.rar
http://www.fastshare.cz/6106117/gfmhdb0801ccea.part05.rar
http://www.fastshare.cz/6106124/gfmhdb0801ccea.part06.rar
http://www.fastshare.cz/6106130/gfmhdb0801ccea.part07.rar
http://www.fastshare.cz/6106133/gfmhdb0801ccea.part08.rar
http://www.fastshare.cz/6106137/gfmhdb0801ccea.part09.rar
http://www.fastshare.cz/6106139/gfmhdb0801ccea.part10.rar
http://www.fastshare.cz/6106144/gfmhdb0801ccea.part11.rar
http://www.fastshare.cz/6106149/gfmhdb0801ccea.part12.rar
http://www.fastshare.cz/6106154/gfmhdb0801ccea.part13.rar
http://www.fastshare.cz/6106156/gfmhdb0801ccea.part14.rar
http://www.fastshare.cz/6106157/gfmhdb0801ccea.part15.rar

kód:

http://file-share.top/file/220896/gfmhdb0801ccea-part01-rar
http://file-share.top/file/220899/gfmhdb0801ccea-part02-rar
http://file-share.top/file/220902/gfmhdb0801ccea-part03-rar
http://file-share.top/file/220906/gfmhdb0801ccea-part04-rar
http://file-share.top/file/220909/gfmhdb0801ccea-part05-rar
http://file-share.top/file/220912/gfmhdb0801ccea-part06-rar
http://file-share.top/file/220917/gfmhdb0801ccea-part07-rar
http://file-share.top/file/220920/gfmhdb0801ccea-part08-rar
http://file-share.top/file/220924/gfmhdb0801ccea-part09-rar
http://file-share.top/file/220927/gfmhdb0801ccea-part10-rar
http://file-share.top/file/220930/gfmhdb0801ccea-part11-rar
http://file-share.top/file/220932/gfmhdb0801ccea-part12-rar
http://file-share.top/file/220935/gfmhdb0801ccea-part13-rar
http://file-share.top/file/220939/gfmhdb0801ccea-part14-rar
http://file-share.top/file/220940/gfmhdb0801ccea-part15-rar


Upload 3% na opravu dat

no pass
Návrat hore Goto down
Zobrazit informácie o autorovi
 
Avatar (2009)
Zobraziť predchádzajúcu tému Zobraziť nasledujúcu tému Návrat hore 
Strana 1 z 1

Povolenie tohoto fóra:Nemôžete odpovedať na témy v tomto fóre.
Warforum :: Sťahuj :: FILMY-
Prejdi na: