Warforum

stahuj.forumonline.biz
 
DomovFAQHľadaťRegistráciaZoznam užívateľovUžívateľské skupinyPrihlásenie

Share | 
 

 Věc / Thing, The (1982)

Zobraziť predchádzajúcu tému Zobraziť nasledujúcu tému Goto down 
AutorSpráva
Jack86



Počet príspevkov : 110
Registration date : 10.02.2010

OdoslaťPredmet: Věc / Thing, The (1982)   Št jún 23, 2016 9:46 pm




kód:

http://www.csfd.cz/film/1329-vec/prehled/
http://www.imdb.com/title/tt0084787/combined


[size=140]The.Thing.1982.1080p.BluRay.x264[/size]


Audio: EN/CZ
Titulky: CZ


kód:
The.Thing.1982.1080p.BluRay.x264
Format                      : Matroska
Format version              : Version 2
File size                  : 17.2 GiB
Duration                    : 1h 48mn
Overall bit rate            : 22.7 Mbps
Movie name                  : VEC_1080p_CZ,EN by Farell
Encoded date                : UTC 2011-04-30 22:34:33
Writing application        : mkvmerge v4.7.0 ('Just Like You Imagined') built on Apr 21 2011 01:13:14
Writing library            : libebml v1.2.0 + libmatroska v1.1.0

Video
ID                          : 1
Format                      : VC-1
Format profile              : Advanced@L3
Codec ID                    : V_MS/VFW/FOURCC / WVC1
Codec ID/Hint              : Microsoft
Duration                    : 1h 48mn
Width                      : 1 920 pixels
Height                      : 1 080 pixels
Display aspect ratio        : 16:9
Frame rate mode            : Constant
Frame rate                  : 23.976 (24000/1001) fps
Color space                : YUV
Chroma subsampling          : 4:2:0
Bit depth                  : 8 bits
Scan type                  : Progressive
Compression mode            : Lossy
Title                      : VEC_1080p_CZ,EN by Farell
Default                    : Yes
Forced                      : No

Audio #1
ID                          : 2
Format                      : DTS
Format/Info                : Digital Theater Systems
Format profile              : MA / Core
Mode                        : 16
Format settings, Endianness : Big
Muxing mode                : Header stripping
Codec ID                    : A_DTS
Duration                    : 1h 48mn
Bit rate mode              : Variable / Constant
Bit rate                    : Unknown / 1 509 Kbps
Channel(s)                  : 6 channels
Channel positions          : Front: L C R, Side: L R, LFE
Sampling rate              : 48.0 KHz
Frame rate                  : 93.750 fps (512 spf)
Bit depth                  : 24 bits
Compression mode            : Lossless / Lossy
Title                      : DTS-MA 5.1EN by Farell
Language                    : English
Default                    : No
Forced                      : No

Audio #2
ID                          : 3
Format                      : AC-3
Format/Info                : Audio Coding 3
Mode extension              : CM (complete main)
Format settings, Endianness : Big
Muxing mode                : Header stripping
Codec ID                    : A_AC3
Duration                    : 1h 48mn
Bit rate mode              : Constant
Bit rate                    : 448 Kbps
Channel(s)                  : 6 channels
Channel positions          : Front: L C R, Side: L R, LFE
Sampling rate              : 48.0 KHz
Frame rate                  : 31.250 fps (1536 spf)
Compression mode            : Lossy
Stream size                : 348 MiB (2%)
Title                      : DD 5.1CZ by Farell
Language                    : Czech
Default                    : Yes
Forced                      : No

Audio #3
ID                          : 4
Format                      : AC-3
Format/Info                : Audio Coding 3
Mode extension              : CM (complete main)
Format settings, Endianness : Big
Muxing mode                : Header stripping
Codec ID                    : A_AC3
Duration                    : 1h 48mn
Bit rate mode              : Constant
Bit rate                    : 192 Kbps
Channel(s)                  : 2 channels
Channel positions          : Front: L R
Sampling rate              : 48.0 KHz
Frame rate                  : 31.250 fps (1536 spf)
Compression mode            : Lossy
Stream size                : 149 MiB (1%)
Title                      : DD 2.0CZ by Farell
Language                    : Czech
Default                    : No
Forced                      : No

kód:

http://www.fastshare.cz/6102270/b08012891tt.part01.rar
http://www.fastshare.cz/6102277/b08012891tt.part02.rar
http://www.fastshare.cz/6102283/b08012891tt.part03.rar
http://www.fastshare.cz/6102288/b08012891tt.part04.rar
http://www.fastshare.cz/6102292/b08012891tt.part05.rar
http://www.fastshare.cz/6102298/b08012891tt.part06.rar
http://www.fastshare.cz/6102306/b08012891tt.part07.rar
http://www.fastshare.cz/6102313/b08012891tt.part08.rar
http://www.fastshare.cz/6102320/b08012891tt.part09.rar

kód:

http://file-share.top/file/219744/b08012891tt-part01-rar
http://file-share.top/file/219749/b08012891tt-part02-rar
http://file-share.top/file/219754/b08012891tt-part03-rar
http://file-share.top/file/219758/b08012891tt-part04-rar
http://file-share.top/file/219761/b08012891tt-part05-rar
http://file-share.top/file/219766/b08012891tt-part06-rar
http://file-share.top/file/219770/b08012891tt-part07-rar
http://file-share.top/file/219776/b08012891tt-part08-rar
http://file-share.top/file/219780/b08012891tt-part09-rar


Upload 3% na opravu dat

no pass
Návrat hore Goto down
Zobrazit informácie o autorovi
 
Věc / Thing, The (1982)
Zobraziť predchádzajúcu tému Zobraziť nasledujúcu tému Návrat hore 
Strana 1 z 1

Povolenie tohoto fóra:Nemôžete odpovedať na témy v tomto fóre.
Warforum :: Sťahuj :: FILMY-
Prejdi na: