Warforum

stahuj.forumonline.biz
 
DomovFAQHľadaťRegistráciaZoznam užívateľovUžívateľské skupinyPrihlásenie

Share | 
 

 Contact / Kontakt (1997)

Zobraziť predchádzajúcu tému Zobraziť nasledujúcu tému Goto down 
AutorSpráva
Jack86



Počet príspevkov : 110
Registration date : 10.02.2010

OdoslaťPredmet: Contact / Kontakt (1997)   Št jún 23, 2016 8:44 pm




kód:

http://www.csfd.cz/film/10132-kontakt/prehled/
http://www.imdb.com/title/tt0118884/combined


[size=140]Contact.1997.1080p.Bluray.DTS.x264-cHUNT + titulky[/size]


Audio: EN
Titulky: CZ


kód:
Contact.1997.1080p.Bluray.DTS.x264-cHUNT
Format                      : Matroska
Format version              : Version 2
File size                  : 12.5 GiB
Duration                    : 2h 29mn
Overall bit rate mode      : Variable
Overall bit rate            : 12.0 Mbps
Movie name                  : 00031
Encoded date                : UTC 2009-10-01 20:21:29
Writing application        : mkvmerge v2.9.7 ('Tenderness') built on Jul  1 2009 18:43:35
Writing library            : libebml v0.7.7 + libmatroska v0.8.1

Video
ID                          : 1
Format                      : AVC
Format/Info                : Advanced Video Codec
Format profile              : High@L4.1
Format settings, CABAC      : Yes
Format settings, ReFrames  : 5 frames
Codec ID                    : V_MPEG4/ISO/AVC
Duration                    : 2h 29mn
Bit rate mode              : Variable
Bit rate                    : 10.5 Mbps
Maximum bit rate            : 25.0 Mbps
Width                      : 1 920 pixels
Height                      : 800 pixels
Display aspect ratio        : 2.40:1
Frame rate mode            : Constant
Frame rate                  : 23.976 (24000/1001) fps
Color space                : YUV
Chroma subsampling          : 4:2:0
Bit depth                  : 8 bits
Scan type                  : Progressive
Bits/(Pixel*Frame)          : 0.285
Stream size                : 10.7 GiB (85%)
Writing library            : x264 core 75 r1251M e553a4c
Encoding settings          : cabac=1 / ref=5 / deblock=1:1:1 / analyse=0x3:0x133 / me=umh / subme=7 / psy=1 / psy_rd=1.0:0.0 / mixed_ref=1 / me_range=16 / chroma_me=1 / trellis=1 / 8x8dct=1 / cqm=0 / deadzone=21,11 / chroma_qp_offset=-2 / threads=12 / nr=0 / decimate=1 / mbaff=0 / bframes=3 / b_pyramid=0 / b_adapt=1 / b_bias=0 / direct=3 / wpredb=1 / keyint=240 / keyint_min=24 / scenecut=40 / rc_lookahead=40 / rc=2pass / mbtree=1 / bitrate=10500 / ratetol=1.0 / qcomp=0.60 / qpmin=10 / qpmax=51 / qpstep=4 / cplxblur=20.0 / qblur=0.5 / vbv_maxrate=25000 / vbv_bufsize=25000 / ip_ratio=1.40 / aq=1:1.00
Default                    : Yes
Forced                      : No

Audio
ID                          : 2
Format                      : DTS
Format/Info                : Digital Theater Systems
Mode                        : 16
Format settings, Endianness : Big
Codec ID                    : A_DTS
Duration                    : 2h 29mn
Bit rate mode              : Constant
Bit rate                    : 1 510 Kbps
Channel(s)                  : 6 channels
Channel positions          : Front: L C R, Side: L R, LFE
Sampling rate              : 48.0 KHz
Frame rate                  : 93.750 fps (512 spf)
Bit depth                  : 24 bits
Compression mode            : Lossy
Stream size                : 1.58 GiB (13%)
Language                    : English
Default                    : Yes
Forced                      : No

Text
ID                          : 3
Format                      : UTF-8
Codec ID                    : S_TEXT/UTF8
Codec ID/Info              : UTF-8 Plain Text
Language                    : English
Default                    : Yes
Forced                      : No

Menu
00:00:00.000                : en:00:00:00.000
00:03:52.065                : en:00:03:52.065
00:07:28.657                : en:00:07:28.657
00:11:19.554                : en:00:11:19.554
00:13:52.040                : en:00:13:52.040
00:16:07.383                : en:00:16:07.383
00:20:58.382                : en:00:20:58.382
00:25:18.851                : en:00:25:18.851
00:28:42.638                : en:00:28:42.638
00:31:11.036                : en:00:31:11.036
00:33:46.816                : en:00:33:46.816
00:43:48.417                : en:00:43:48.417
00:47:11.454                : en:00:47:11.454
00:49:34.346                : en:00:49:34.346
00:51:52.067                : en:00:51:52.067
00:55:28.158                : en:00:55:28.158
00:58:47.315                : en:00:58:47.315
01:01:22.220                : en:01:01:22.220
01:03:51.786                : en:01:03:51.786
01:10:52.707                : en:01:10:52.707
01:12:34.433                : en:01:12:34.433
01:15:02.039                : en:01:15:02.039
01:17:32.565                : en:01:17:32.565
01:19:43.362                : en:01:19:43.362
01:22:55.137                : en:01:22:55.137
01:28:17.667                : en:01:28:17.667
01:34:01.261                : en:01:34:01.261
01:36:02.423                : en:01:36:02.423
01:38:48.172                : en:01:38:48.172
01:41:42.930                : en:01:41:42.930
01:45:28.739                : en:01:45:28.739
01:50:27.412                : en:01:50:27.412
01:54:27.360                : en:01:54:27.360
01:59:09.142                : en:01:59:09.142
02:01:28.948                : en:02:01:28.948
02:04:58.908                : en:02:04:58.908
02:07:57.712                : en:02:07:57.712
02:09:42.191                : en:02:09:42.191
02:13:14.153                : en:02:13:14.153
02:16:05.532                : en:02:16:05.532
02:18:16.955                : en:02:18:16.955
02:19:04.878                : en:02:19:04.878

kód:

http://www.fastshare.cz/6101465/hcdb0879c.part1.rar
http://www.fastshare.cz/6101477/hcdb0879c.part6.rar
http://www.fastshare.cz/6101480/hcdb0879c.part7.rar
http://www.fastshare.cz/6101540/hcdb0879c.part2.rar
http://www.fastshare.cz/6101544/hcdb0879c.part3.rar
http://www.fastshare.cz/6101558/hcdb0879c.part4.rar
http://www.fastshare.cz/6101586/hcdb0879c.part5.rar

kód:

http://file-share.top/file/219035/hcdb0879c-part1-rar
http://file-share.top/file/219043/hcdb0879c-part2-rar
http://file-share.top/file/219051/hcdb0879c-part3-rar
http://file-share.top/file/219066/hcdb0879c-part4-rar
http://file-share.top/file/219076/hcdb0879c-part5-rar
http://file-share.top/file/219085/hcdb0879c-part6-rar
http://file-share.top/file/219090/hcdb0879c-part7-rar


Upload 3% na opravu dat

no pass
Návrat hore Goto down
Zobrazit informácie o autorovi
 
Contact / Kontakt (1997)
Zobraziť predchádzajúcu tému Zobraziť nasledujúcu tému Návrat hore 
Strana 1 z 1

Povolenie tohoto fóra:Nemôžete odpovedať na témy v tomto fóre.
Warforum :: Sťahuj :: FILMY-
Prejdi na: