Warforum

stahuj.forumonline.biz
 
DomovFAQHľadaťRegistráciaZoznam užívateľovUžívateľské skupinyPrihlásenie

Share | 
 

 V zajetí démonů / Conjuring, The (2013)

Zobraziť predchádzajúcu tému Zobraziť nasledujúcu tému Goto down 
AutorSpráva
Jack86



Počet príspevkov : 110
Registration date : 10.02.2010

OdoslaťPredmet: V zajetí démonů / Conjuring, The (2013)   Št jún 23, 2016 8:06 pm




kód:

http://www.csfd.cz/film/298275-v-zajeti-demonu/prehled/
http://www.imdb.com/title/tt1457767/combined


[size=140]The.Conjuring.2013.1080p.BluRay.DTS.x264-HDMaNiAcS[/size]


Audio: EN/CZ
Titulky: CZ/CZ (F)


kód:
The.Conjuring.2013.1080p.BluRay.DTS.x264-HDMaNiAcS
Format                      : Matroska
Format version              : Version 4 / Version 2
File size                  : 15.4 GiB
Duration                    : 1h 51mn
Overall bit rate            : 19.6 Mbps
Movie name                  : The.Conjuring.2013.1080p.BluRay.DTS.x264-HDMaNiAcS
Encoded date                : UTC 2010-02-22 21:41:31
Writing application        : mkvmerge v5.9.0 ('On The Loose') built on Dec  9 2012 15:37:01
Writing library            : libebml v1.3.0 + libmatroska v1.4.0

Video
ID                          : 1
Format                      : AVC
Format/Info                : Advanced Video Codec
Format profile              : High@L4.1
Format settings, CABAC      : Yes
Format settings, ReFrames  : 5 frames
Codec ID                    : V_MPEG4/ISO/AVC
Duration                    : 1h 51mn
Bit rate                    : 17.5 Mbps
Width                      : 1 920 pixels
Height                      : 798 pixels
Display aspect ratio        : 2.40:1
Frame rate mode            : Constant
Frame rate                  : 23.976 (24000/1001) fps
Color space                : YUV
Chroma subsampling          : 4:2:0
Bit depth                  : 8 bits
Scan type                  : Progressive
Bits/(Pixel*Frame)          : 0.476
Stream size                : 13.4 GiB (87%)
Title                      : The.Conjuring.2013.1080p.BluRay.DTS.x264-HDMaNiAcS
Writing library            : x264 core 138 r2358kMod 9e941d1
Encoding settings          : cabac=1 / ref=5 / deblock=1:-3:-3 / analyse=0x3:0x113 / me=tesa / subme=11 / psy=1 / fade_compensate=0.00 / psy_rd=1.20:0.00 / mixed_ref=1 / me_range=32 / chroma_me=1 / trellis=2 / 8x8dct=1 / cqm=0 / deadzone=21,11 / fast_pskip=0 / chroma_qp_offset=-2 / threads=12 / lookahead_threads=2 / sliced_threads=0 / nr=0 / decimate=0 / interlaced=0 / bluray_compat=0 / constrained_intra=0 / bframes=8 / b_pyramid=2 / b_adapt=2 / b_bias=0 / direct=3 / weightb=1 / open_gop=0 / weightp=2 / keyint=250 / keyint_min=23 / scenecut=40 / intra_refresh=0 / rc_lookahead=40 / rc=2pass / mbtree=0 / bitrate=17500 / ratetol=1.0 / qcomp=0.60 / qpmin=10 / qpmax=69 / qpstep=4 / cplxblur=20.0 / qblur=0.5 / vbv_maxrate=40000 / vbv_bufsize=30000 / nal_hrd=none / ip_ratio=1.35 / pb_ratio=1.10 / aq=3:0.80
Language                    : Czech
Default                    : Yes
Forced                      : No

Audio #1
ID                          : 2
Format                      : AC-3
Format/Info                : Audio Coding 3
Mode extension              : CM (complete main)
Format settings, Endianness : Big
Codec ID                    : A_AC3
Duration                    : 1h 51mn
Bit rate mode              : Constant
Bit rate                    : 640 Kbps
Channel(s)                  : 6 channels
Channel positions          : Front: L C R, Side: L R, LFE
Sampling rate              : 48.0 KHz
Frame rate                  : 31.250 fps (1536 spf)
Compression mode            : Lossy
Stream size                : 513 MiB (3%)
Title                      : DD 5.1 @ 640 Kbps
Language                    : Czech
Default                    : Yes
Forced                      : No

Audio #2
ID                          : 3
Format                      : DTS
Format/Info                : Digital Theater Systems
Mode                        : 16
Format settings, Endianness : Big
Codec ID                    : A_DTS
Duration                    : 1h 51mn
Bit rate mode              : Constant
Bit rate                    : 1 509 Kbps
Channel(s)                  : 6 channels
Channel positions          : Front: L C R, Side: L R, LFE
Sampling rate              : 48.0 KHz
Frame rate                  : 93.750 fps (512 spf)
Bit depth                  : 24 bits
Compression mode            : Lossy
Stream size                : 1.18 GiB (8%)
Title                      : DTS 5.1 @ 1 509 Kbps
Language                    : English
Default                    : No
Forced                      : No

Text #1
ID                          : 4
Format                      : UTF-8
Codec ID                    : S_TEXT/UTF8
Codec ID/Info              : UTF-8 Plain Text
Title                      : FORCED
Language                    : Czech
Default                    : Yes
Forced                      : Yes

Text #2
ID                          : 5
Format                      : UTF-8
Codec ID                    : S_TEXT/UTF8
Codec ID/Info              : UTF-8 Plain Text
Title                      : FULL
Language                    : Czech
Default                    : No
Forced                      : No

Menu
00:00:00.000                : en:Chapter 1
00:08:52.990                : en:Chapter 2
00:19:26.665                : en:Chapter 3
00:29:15.754                : en:Chapter 4
00:40:50.239                : en:Chapter 5
00:51:06.730                : en:Chapter 6
00:59:55.466                : en:Chapter 7
01:10:37.149                : en:Chapter 8
01:21:03.108                : en:Chapter 9
01:28:59.292                : en:Chapter 10
01:38:10.759                : en:Chapter 11
01:46:08.361                : en:Chapter 12

kód:

http://www.fastshare.cz/6100922/hb0831ct.part1.rar
http://www.fastshare.cz/6100926/hb0831ct.part2.rar
http://www.fastshare.cz/6100935/hb0831ct.part3.rar
http://www.fastshare.cz/6100944/hb0831ct.part4.rar
http://www.fastshare.cz/6100951/hb0831ct.part5.rar
http://www.fastshare.cz/6100960/hb0831ct.part6.rar
http://www.fastshare.cz/6100967/hb0831ct.part7.rar
http://www.fastshare.cz/6100973/hb0831ct.part8.rar

kód:

http://file-share.top/file/218692/hb0831ct-part1-rar
http://file-share.top/file/218695/hb0831ct-part2-rar
http://file-share.top/file/218697/hb0831ct-part3-rar
http://file-share.top/file/218701/hb0831ct-part4-rar
http://file-share.top/file/218705/hb0831ct-part5-rar
http://file-share.top/file/218708/hb0831ct-part6-rar
http://file-share.top/file/218712/hb0831ct-part7-rar
http://file-share.top/file/218715/hb0831ct-part8-rar


Upload 3% na opravu dat

no pass
Návrat hore Goto down
Zobrazit informácie o autorovi
 
V zajetí démonů / Conjuring, The (2013)
Zobraziť predchádzajúcu tému Zobraziť nasledujúcu tému Návrat hore 
Strana 1 z 1

Povolenie tohoto fóra:Nemôžete odpovedať na témy v tomto fóre.
Warforum :: Sťahuj :: FILMY-
Prejdi na: