Warforum

stahuj.forumonline.biz
 
DomovFAQHľadaťRegistráciaZoznam užívateľovUžívateľské skupinyPrihlásenie

Share | 
 

 Allegiant / Série Divergence: Aliance (2016)

Zobraziť predchádzajúcu tému Zobraziť nasledujúcu tému Goto down 
AutorSpráva
Jack86



Počet príspevkov : 110
Registration date : 10.02.2010

OdoslaťPredmet: Allegiant / Série Divergence: Aliance (2016)   St jún 22, 2016 10:47 pm




kód:

http://www.csfd.cz/film/368714-aliance/prehled/
http://www.imdb.com/title/tt3410834/combined


[size=140]Allegiant.2016.1080p.WEB-DL.DD5.1.H264-FGT + titulky[/size]


Audio: EN
Titulky: CZ


kód:
Allegiant.2016.1080p.WEB-DL.DD5.1.H264-FGT
Format                      : Matroska
Format version              : Version 4 / Version 2
File size                  : 4.07 GiB
Duration                    : 2h 0mn
Overall bit rate            : 4 838 Kbps
Movie name                  : Allegiant.2016.1080p.WEB-DL.DD5.1.H264-FGT
Encoded date                : UTC 2016-06-21 10:05:11
Writing application        : mkvmerge v9.2.0 ('Photograph') 64bit
Writing library            : libebml v1.3.3 + libmatroska v1.4.4
Cover                      : Yes
Attachments                : cover_land.jpg / small_cover.jpg / small_cover_land.jpg / cover.jpg

Video
ID                          : 1
Format                      : AVC
Format/Info                : Advanced Video Codec
Format profile              : High@L4
Format settings, CABAC      : Yes
Format settings, ReFrames  : 5 frames
Codec ID                    : V_MPEG4/ISO/AVC
Duration                    : 2h 0mn
Bit rate                    : 4 358 Kbps
Width                      : 1 912 pixels
Height                      : 792 pixels
Display aspect ratio        : 2.40:1
Frame rate mode            : Constant
Frame rate                  : 23.976 (24000/1001) fps
Color space                : YUV
Chroma subsampling          : 4:2:0
Bit depth                  : 8 bits
Scan type                  : Progressive
Bits/(Pixel*Frame)          : 0.120
Stream size                : 3.67 GiB (90%)
Title                      : Allegiant.2016.1080p.WEB-DL.DD5.1.H264-FGT
Language                    : English
Default                    : Yes
Forced                      : No
Color range                : Limited
Color primaries            : BT.709
Transfer characteristics    : BT.709
Matrix coefficients        : BT.709

Audio
ID                          : 2
Format                      : AC-3
Format/Info                : Audio Coding 3
Mode extension              : CM (complete main)
Format settings, Endianness : Big
Codec ID                    : A_AC3
Duration                    : 2h 0mn
Bit rate mode              : Constant
Bit rate                    : 384 Kbps
Channel(s)                  : 6 channels
Channel positions          : Front: L C R, Side: L R, LFE
Sampling rate              : 48.0 KHz
Frame rate                  : 31.250 fps (1536 spf)
Compression mode            : Lossy
Stream size                : 331 MiB (8%)
Title                      : Allegiant.2016.1080p.WEB-DL.DD5.1.H264-FGT
Language                    : English
Default                    : Yes
Forced                      : No

Text
ID                          : 3
Format                      : UTF-8
Codec ID                    : S_TEXT/UTF8
Codec ID/Info              : UTF-8 Plain Text
Language                    : English
Default                    : Yes
Forced                      : No

Menu
00:00:00.000                : en:Chapter 1
00:09:47.000                : en:Chapter 2
00:18:47.000                : en:Chapter 3
00:26:52.000                : en:Chapter 4
00:36:10.000                : en:Chapter 5
00:45:50.000                : en:Chapter 6
00:53:32.000                : en:Chapter 7
01:03:32.000                : en:Chapter 8
01:13:24.000                : en:Chapter 9
01:23:11.000                : en:Chapter 10
01:30:52.000                : en:Chapter 11
01:40:09.000                : en:Chapter 12
01:49:16.000                : en:Chapter 13

kód:

http://www.fastshare.cz/6100579/allegiant.2016.1080p.web-dl.dd5.1.h264-fgt.mkv
http://www.fastshare.cz/6100580/allegiant.2016.1080p.web-dl.dd5.1.h264-fgt.srt

kód:

http://file-share.top/file/218585/allegiant-2016-1080p-web-dl-dd5-1-h264-fgt-mkv
http://file-share.top/file/218586/allegiant-2016-1080p-web-dl-dd5-1-h264-fgt-srt

kód:

http://www.fastshare.cz/6100501/fdw0861a.rar

kód:

http://file-share.top/file/218560/fdw0861a-rar

kód:

http://www.fastshare.cz/6100446/fdw0861a.part1.rar
http://www.fastshare.cz/6100450/fdw0861a.part2.rar
http://www.fastshare.cz/6100451/fdw0861a.part3.rar

kód:

http://file-share.top/file/218534/fdw0861a-part1-rar
http://file-share.top/file/218537/fdw0861a-part2-rar
http://file-share.top/file/218540/fdw0861a-part3-rar


Upload 3% na opravu dat

no pass
Návrat hore Goto down
Zobrazit informácie o autorovi
Jack86



Počet príspevkov : 110
Registration date : 10.02.2010

OdoslaťPredmet: Allegiant / Série Divergence: Aliance (2016)   Ne júl 03, 2016 3:33 am




kód:

http://www.csfd.cz/film/368714-aliance/prehled/
http://www.imdb.com/title/tt3410834/combined


[size=140]Allegiant.2016.1080p.BluRay.x264-DRONES + titulky[/size]


Audio: EN
Titulky: CZ


kód:
Allegiant.2016.1080p.BluRay.x264-DRONES
Format                      : Matroska
Format version              : Version 4 / Version 2
File size                  : 7.94 GiB
Duration                    : 2h 0mn
Overall bit rate            : 9 433 Kbps
Encoded date                : UTC 2016-06-29 20:43:42
Writing application        : mkvmerge v8.3.0 ('Over the Horizon') 64bit
Writing library            : libebml v1.3.1 + libmatroska v1.4.2

Video
ID                          : 1
Format                      : AVC
Format/Info                : Advanced Video Codec
Format profile              : High@L4.1
Format settings, CABAC      : Yes
Format settings, ReFrames  : 5 frames
Codec ID                    : V_MPEG4/ISO/AVC
Duration                    : 2h 0mn
Bit rate                    : 8 794 Kbps
Width                      : 1 920 pixels
Height                      : 800 pixels
Display aspect ratio        : 2.40:1
Frame rate mode            : Constant
Frame rate                  : 23.976 fps
Color space                : YUV
Chroma subsampling          : 4:2:0
Bit depth                  : 8 bits
Scan type                  : Progressive
Bits/(Pixel*Frame)          : 0.239
Stream size                : 7.40 GiB (93%)
Writing library            : x264 core 148 r2692 64f4e24
Encoding settings          : cabac=1 / ref=5 / deblock=1:0:0 / analyse=0x3:0x133 / me=umh / subme=7 / psy=1 / psy_rd=1.00:0.00 / mixed_ref=1 / me_range=16 / chroma_me=1 / trellis=1 / 8x8dct=1 / cqm=0 / deadzone=21,11 / fast_pskip=0 / chroma_qp_offset=-2 / threads=25 / lookahead_threads=4 / sliced_threads=0 / nr=0 / decimate=1 / interlaced=0 / bluray_compat=0 / constrained_intra=0 / bframes=3 / b_pyramid=2 / b_adapt=1 / b_bias=0 / direct=1 / weightb=1 / open_gop=0 / weightp=2 / keyint=250 / keyint_min=23 / scenecut=40 / intra_refresh=0 / rc_lookahead=40 / rc=2pass / mbtree=1 / bitrate=8794 / ratetol=1.0 / qcomp=0.60 / qpmin=0 / qpmax=69 / qpstep=4 / cplxblur=20.0 / qblur=0.5 / ip_ratio=1.40 / aq=1:1.00
Language                    : English
Default                    : Yes
Forced                      : No

Audio
ID                          : 2
Format                      : AC-3
Format/Info                : Audio Coding 3
Mode extension              : CM (complete main)
Format settings, Endianness : Big
Codec ID                    : A_AC3
Duration                    : 2h 0mn
Bit rate mode              : Constant
Bit rate                    : 640 Kbps
Channel(s)                  : 6 channels
Channel positions          : Front: L C R, Side: L R, LFE
Sampling rate              : 48.0 KHz
Frame rate                  : 31.250 fps (1536 spf)
Compression mode            : Lossy
Stream size                : 552 MiB (7%)
Language                    : English
Default                    : Yes
Forced                      : No

Menu
00:00:00.000                : en:00:00:00.000
00:09:46.336                : en:00:09:46.336
00:16:54.305                : en:00:16:54.305
00:25:52.092                : en:00:25:52.092
00:32:45.213                : en:00:32:45.213
00:37:26.202                : en:00:37:26.202
00:45:49.538                : en:00:45:49.538
00:53:31.458                : en:00:53:31.458
00:58:18.245                : en:00:58:18.245
01:07:21.162                : en:01:07:21.162
01:13:46.714                : en:01:13:46.714
01:19:51.036                : en:01:19:51.036
01:26:40.237                : en:01:26:40.237
01:33:12.128                : en:01:33:12.128
01:40:24.060                : en:01:40:24.060
01:46:18.872                : en:01:46:18.872

kód:

http://www.fastshare.cz/6125560/drb08016102a.part1.rar
http://www.fastshare.cz/6125575/drb08016102a.part2.rar
http://www.fastshare.cz/6125597/drb08016102a.part3.rar
http://www.fastshare.cz/6125615/drb08016102a.part4.rar
http://www.fastshare.cz/6125618/drb08016102a.part5.rar

kód:

http://sdilej.cz/7866469/0mew/DRB08016102A.part1.rar
http://sdilej.cz/7866474/i1JI/DRB08016102A.part2.rar
http://sdilej.cz/7866476/dum7/DRB08016102A.part3.rar
http://sdilej.cz/7866481/Cz6G/DRB08016102A.part4.rar
http://sdilej.cz/7866482/dA1f/DRB08016102A.part5.rar

[size=140]Allegiant.2016.1080p.BluRay.x264.TrueHD.7.1.Atmos-RARBG + titulky[/size]


Audio: EN
Titulky: CZ


kód:
Allegiant.2016.1080p.BluRay.x264.TrueHD.7.1.Atmos-RARBG
Format                      : Matroska
Format version              : Version 4 / Version 2
File size                  : 12.1 GiB
Duration                    : 2h 0mn
Overall bit rate mode      : Variable
Overall bit rate            : 14.3 Mbps
Movie name                  : Allegiant.2016.1080p.BluRay.x264.TrueHD.7.1.Atmos-RARBG
Encoded date                : UTC 2016-07-02 15:29:52
Writing application        : mkvmerge v9.2.0 ('Photograph') 64bit
Writing library            : libebml v1.3.3 + libmatroska v1.4.4
Cover                      : Yes
Attachments                : cover_land.jpg / small_cover.jpg / small_cover_land.jpg / cover.jpg

Video
ID                          : 1
Format                      : AVC
Format/Info                : Advanced Video Codec
Format profile              : High@L4.1
Format settings, CABAC      : Yes
Format settings, ReFrames  : 5 frames
Codec ID                    : V_MPEG4/ISO/AVC
Duration                    : 2h 0mn
Nominal bit rate            : 8 794 Kbps
Width                      : 1 920 pixels
Height                      : 800 pixels
Display aspect ratio        : 2.40:1
Frame rate mode            : Constant
Frame rate                  : 23.976 fps
Color space                : YUV
Chroma subsampling          : 4:2:0
Bit depth                  : 8 bits
Scan type                  : Progressive
Bits/(Pixel*Frame)          : 0.239
Title                      : Allegiant.2016.1080p.BluRay.x264.TrueHD.7.1.Atmos-RARBG
Writing library            : x264 core 148 r2692 64f4e24
Encoding settings          : cabac=1 / ref=5 / deblock=1:0:0 / analyse=0x3:0x133 / me=umh / subme=7 / psy=1 / psy_rd=1.00:0.00 / mixed_ref=1 / me_range=16 / chroma_me=1 / trellis=1 / 8x8dct=1 / cqm=0 / deadzone=21,11 / fast_pskip=0 / chroma_qp_offset=-2 / threads=25 / lookahead_threads=4 / sliced_threads=0 / nr=0 / decimate=1 / interlaced=0 / bluray_compat=0 / constrained_intra=0 / bframes=3 / b_pyramid=2 / b_adapt=1 / b_bias=0 / direct=1 / weightb=1 / open_gop=0 / weightp=2 / keyint=250 / keyint_min=23 / scenecut=40 / intra_refresh=0 / rc_lookahead=40 / rc=2pass / mbtree=1 / bitrate=8794 / ratetol=1.0 / qcomp=0.60 / qpmin=0 / qpmax=69 / qpstep=4 / cplxblur=20.0 / qblur=0.5 / ip_ratio=1.40 / aq=1:1.00
Language                    : English
Default                    : Yes
Forced                      : No

Audio #1
ID                          : 2
Format                      : Atmos / TrueHD
Codec ID                    : A_TRUEHD
Bit rate mode              : Variable
Maximum bit rate            : 6 219 Kbps
Channel(s)                  : Object Based / 8 channels
Channel positions          : Object Based / Front: L C R, Side: L R, Back: L R, LFE
Sampling rate              :  / 48.0 KHz
Frame rate                  : 1 200.000 fps (40 spf)
Compression mode            : Lossless
Title                      : Allegiant.2016.1080p.BluRay.x264.TrueHD.7.1.Atmos-RARBG
Language                    : English
Default                    : Yes
Forced                      : No

Audio #2
ID                          : 3
Format                      : AC-3
Format/Info                : Audio Coding 3
Mode extension              : CM (complete main)
Format settings, Endianness : Big
Codec ID                    : A_AC3
Duration                    : 2h 0mn
Bit rate mode              : Constant
Bit rate                    : 640 Kbps
Channel(s)                  : 6 channels
Channel positions          : Front: L C R, Side: L R, LFE
Sampling rate              : 48.0 KHz
Frame rate                  : 31.250 fps (1536 spf)
Compression mode            : Lossy
Stream size                : 552 MiB (4%)
Title                      : Allegiant.2016.1080p.BluRay.x264.TrueHD.7.1.Atmos-RARBG
Language                    : English
Default                    : No
Forced                      : No

Text #1
ID                          : 4
Format                      : PGS
Muxing mode                : zlib
Codec ID                    : S_HDMV/PGS
Codec ID/Info              : Picture based subtitle format used on BDs/HD-DVDs
Title                      : English-PGS
Language                    : English
Default                    : No
Forced                      : No

Text #2
ID                          : 5
Format                      : PGS
Muxing mode                : zlib
Codec ID                    : S_HDMV/PGS
Codec ID/Info              : Picture based subtitle format used on BDs/HD-DVDs
Title                      : English-SDH-PGS
Language                    : English
Default                    : No
Forced                      : No

Text #3
ID                          : 6
Format                      : PGS
Muxing mode                : zlib
Codec ID                    : S_HDMV/PGS
Codec ID/Info              : Picture based subtitle format used on BDs/HD-DVDs
Title                      : Spanish-PGS
Language                    : Spanish
Default                    : No
Forced                      : No

Menu
00:00:00.000                : en:00:00:00.000
00:09:46.336                : en:00:09:46.336
00:16:54.305                : en:00:16:54.305
00:25:52.092                : en:00:25:52.092
00:32:45.213                : en:00:32:45.213
00:37:26.202                : en:00:37:26.202
00:45:49.538                : en:00:45:49.538
00:53:31.458                : en:00:53:31.458
00:58:18.245                : en:00:58:18.245
01:07:21.162                : en:01:07:21.162
01:13:46.714                : en:01:13:46.714
01:19:51.036                : en:01:19:51.036
01:26:40.237                : en:01:26:40.237
01:33:12.128                : en:01:33:12.128
01:40:24.060                : en:01:40:24.060
01:46:18.872                : en:01:46:18.872

kód:

http://www.fastshare.cz/6126350/rahtrb08016102a.part1.rar
http://www.fastshare.cz/6126366/rahtrb08016102a.part2.rar
http://www.fastshare.cz/6126375/rahtrb08016102a.part3.rar
http://www.fastshare.cz/6126385/rahtrb08016102a.part4.rar
http://www.fastshare.cz/6126393/rahtrb08016102a.part5.rar
http://www.fastshare.cz/6126403/rahtrb08016102a.part6.rar
http://www.fastshare.cz/6126404/rahtrb08016102a.part7.rar

kód:

http://sdilej.cz/7866738/yJID/RAHTRB08016102A.part2.rar
http://sdilej.cz/7866740/44ve/RAHTRB08016102A.part1.rar
http://sdilej.cz/7866747/fnIA/RAHTRB08016102A.part3.rar
http://sdilej.cz/7866749/9O7_/RAHTRB08016102A.part4.rar
http://sdilej.cz/7866752/4ciN/RAHTRB08016102A.part5.rar
http://sdilej.cz/7866754/0XZR/RAHTRB08016102A.part6.rar
http://sdilej.cz/7866755/tLUV/RAHTRB08016102A.part7.rar

[size=140]Allegiant.2016.1080p.BluRay.x264.DTS-HD.MA.7.1-RARBG + titulky[/size]


Audio: EN
Titulky: CZ


kód:
Allegiant.2016.1080p.BluRay.x264.DTS-HD.MA.7.1-RARBG
Format                      : Matroska
Format version              : Version 4 / Version 2
File size                  : 10.4 GiB
Duration                    : 2h 0mn
Overall bit rate            : 12.3 Mbps
Movie name                  : Allegiant.2016.1080p.BluRay.x264.DTS-HD.MA.7.1-RARBG
Encoded date                : UTC 2016-07-02 15:33:31
Writing application        : mkvmerge v9.2.0 ('Photograph') 64bit
Writing library            : libebml v1.3.3 + libmatroska v1.4.4
Cover                      : Yes
Attachments                : cover_land.jpg / small_cover.jpg / small_cover_land.jpg / cover.jpg

Video
ID                          : 1
Format                      : AVC
Format/Info                : Advanced Video Codec
Format profile              : High@L4.1
Format settings, CABAC      : Yes
Format settings, ReFrames  : 5 frames
Codec ID                    : V_MPEG4/ISO/AVC
Duration                    : 2h 0mn
Nominal bit rate            : 8 794 Kbps
Width                      : 1 920 pixels
Height                      : 800 pixels
Display aspect ratio        : 2.40:1
Frame rate mode            : Constant
Frame rate                  : 23.976 fps
Color space                : YUV
Chroma subsampling          : 4:2:0
Bit depth                  : 8 bits
Scan type                  : Progressive
Bits/(Pixel*Frame)          : 0.239
Title                      : Allegiant.2016.1080p.BluRay.x264.DTS-HD.MA.7.1-RARBG
Writing library            : x264 core 148 r2692 64f4e24
Encoding settings          : cabac=1 / ref=5 / deblock=1:0:0 / analyse=0x3:0x133 / me=umh / subme=7 / psy=1 / psy_rd=1.00:0.00 / mixed_ref=1 / me_range=16 / chroma_me=1 / trellis=1 / 8x8dct=1 / cqm=0 / deadzone=21,11 / fast_pskip=0 / chroma_qp_offset=-2 / threads=25 / lookahead_threads=4 / sliced_threads=0 / nr=0 / decimate=1 / interlaced=0 / bluray_compat=0 / constrained_intra=0 / bframes=3 / b_pyramid=2 / b_adapt=1 / b_bias=0 / direct=1 / weightb=1 / open_gop=0 / weightp=2 / keyint=250 / keyint_min=23 / scenecut=40 / intra_refresh=0 / rc_lookahead=40 / rc=2pass / mbtree=1 / bitrate=8794 / ratetol=1.0 / qcomp=0.60 / qpmin=0 / qpmax=69 / qpstep=4 / cplxblur=20.0 / qblur=0.5 / ip_ratio=1.40 / aq=1:1.00
Language                    : English
Default                    : Yes
Forced                      : No

Audio
ID                          : 2
Format                      : DTS
Format/Info                : Digital Theater Systems
Format profile              : MA / Core
Mode                        : 16
Format settings, Endianness : Big
Codec ID                    : A_DTS
Duration                    : 2h 0mn
Bit rate mode              : Variable / Constant
Bit rate                    : Unknown / 1 509 Kbps
Channel(s)                  : 8 channels / 6 channels
Channel positions          : Front: L C R, Side: L R, Back: L R, LFE / Front: L C R, Side: L R, LFE
Sampling rate              : 48.0 KHz
Frame rate                  : 93.750 fps (512 spf)
Bit depth                  : 24 bits
Compression mode            : Lossless / Lossy
Title                      : Allegiant.2016.1080p.BluRay.x264.DTS-HD.MA.7.1-RARBG
Language                    : English
Default                    : Yes
Forced                      : No

Text #1
ID                          : 3
Format                      : PGS
Muxing mode                : zlib
Codec ID                    : S_HDMV/PGS
Codec ID/Info              : Picture based subtitle format used on BDs/HD-DVDs
Title                      : English-PGS
Language                    : English
Default                    : No
Forced                      : No

Text #2
ID                          : 4
Format                      : PGS
Muxing mode                : zlib
Codec ID                    : S_HDMV/PGS
Codec ID/Info              : Picture based subtitle format used on BDs/HD-DVDs
Title                      : English-SDH-PGS
Language                    : English
Default                    : No
Forced                      : No

Text #3
ID                          : 5
Format                      : PGS
Muxing mode                : zlib
Codec ID                    : S_HDMV/PGS
Codec ID/Info              : Picture based subtitle format used on BDs/HD-DVDs
Title                      : Spanish-PGS
Language                    : Spanish
Default                    : No
Forced                      : No

Menu
00:00:00.000                : en:00:00:00.000
00:09:46.336                : en:00:09:46.336
00:16:54.305                : en:00:16:54.305
00:25:52.092                : en:00:25:52.092
00:32:45.213                : en:00:32:45.213
00:37:26.202                : en:00:37:26.202
00:45:49.538                : en:00:45:49.538
00:53:31.458                : en:00:53:31.458
00:58:18.245                : en:00:58:18.245
01:07:21.162                : en:01:07:21.162
01:13:46.714                : en:01:13:46.714
01:19:51.036                : en:01:19:51.036
01:26:40.237                : en:01:26:40.237
01:33:12.128                : en:01:33:12.128
01:40:24.060                : en:01:40:24.060
01:46:18.872                : en:01:46:18.872

kód:

http://www.fastshare.cz/6126507/rmhdrb0861a.part1.rar
http://www.fastshare.cz/6126520/rmhdrb0861a.part2.rar
http://www.fastshare.cz/6126526/rmhdrb0861a.part3.rar
http://www.fastshare.cz/6126539/rmhdrb0861a.part4.rar
http://www.fastshare.cz/6126551/rmhdrb0861a.part5.rar
http://www.fastshare.cz/6126554/rmhdrb0861a.part6.rar

kód:

http://sdilej.cz/7866772/tGr9/RMHDRB0861A.part1.rar
http://sdilej.cz/7866775/fXk1/RMHDRB0861A.part2.rar
http://sdilej.cz/7866782/6CRR/RMHDRB0861A.part3.rar
http://sdilej.cz/7866786/qjBX/RMHDRB0861A.part4.rar
http://sdilej.cz/7866789/YiwK/RMHDRB0861A.part5.rar
http://sdilej.cz/7866791/fCLH/RMHDRB0861A.part6.rar


Upload 3% na opravu dat

no pass
Návrat hore Goto down
Zobrazit informácie o autorovi
 
Allegiant / Série Divergence: Aliance (2016)
Zobraziť predchádzajúcu tému Zobraziť nasledujúcu tému Návrat hore 
Strana 1 z 1

Povolenie tohoto fóra:Nemôžete odpovedať na témy v tomto fóre.
Warforum :: Sťahuj :: FILMY-
Prejdi na: