Warforum

stahuj.forumonline.biz
 
DomovFAQHľadaťRegistráciaZoznam užívateľovUžívateľské skupinyPrihlásenie

Share | 
 

 Now You See Me / Podfukáři (2013)

Zobraziť predchádzajúcu tému Zobraziť nasledujúcu tému Goto down 
AutorSpráva
Jack86



Počet príspevkov : 110
Registration date : 10.02.2010

OdoslaťPredmet: Now You See Me / Podfukáři (2013)   Ut jún 21, 2016 10:50 am




kód:

http://www.csfd.cz/film/292555-podfukari/prehled/
http://www.imdb.com/title/tt1670345/combined


[size=140]Now.You.See.Me.2013.Extended.Cut.1080p.BluRay.DTS.x264-HDMaNiAcS + titulky[/size]

kód:
Now.You.See.Me.2013.Extended.Cut.1080p.BluRay.DTS.x264-HDMaNiAcS
Format                      : Matroska
Format version              : Version 4 / Version 2
File size                  : 12.8 GiB
Duration                    : 2h 4mn
Overall bit rate            : 14.7 Mbps
Encoded date                : UTC 2013-08-26 20:35:36
Writing application        : mkvmerge v6.2.0 ('Promised Land') built on Apr 28 2013 12:22:01
Writing library            : libebml v1.3.0 + libmatroska v1.4.0

Video
ID                          : 6
Format                      : AVC
Format/Info                : Advanced Video Codec
Format profile              : High@L4.1
Format settings, CABAC      : Yes
Format settings, ReFrames  : 5 frames
Codec ID                    : V_MPEG4/ISO/AVC
Duration                    : 2h 4mn
Bit rate                    : 12.9 Mbps
Width                      : 1 920 pixels
Height                      : 800 pixels
Display aspect ratio        : 2.40:1
Frame rate mode            : Constant
Frame rate                  : 23.976 (24000/1001) fps
Color space                : YUV
Chroma subsampling          : 4:2:0
Bit depth                  : 8 bits
Scan type                  : Progressive
Bits/(Pixel*Frame)          : 0.349
Stream size                : 11.2 GiB (88%)
Writing library            : x264 core 135 r2345 f0c1c53
Encoding settings          : cabac=1 / ref=5 / deblock=1:-3:-3 / analyse=0x3:0x113 / me=tesa / subme=11 / psy=1 / psy_rd=1.10:0.00 / mixed_ref=1 / me_range=24 / chroma_me=1 / trellis=2 / 8x8dct=1 / cqm=0 / deadzone=21,11 / fast_pskip=0 / chroma_qp_offset=-2 / threads=6 / lookahead_threads=1 / sliced_threads=0 / nr=0 / decimate=0 / interlaced=0 / bluray_compat=0 / constrained_intra=0 / bframes=8 / b_pyramid=2 / b_adapt=2 / b_bias=0 / direct=3 / weightb=1 / open_gop=0 / weightp=2 / keyint=250 / keyint_min=24 / scenecut=40 / intra_refresh=0 / rc_lookahead=250 / rc=crf / mbtree=0 / crf=18.2 / qcomp=0.70 / qpmin=0 / qpmax=69 / qpstep=4 / vbv_maxrate=38000 / vbv_bufsize=30000 / crf_max=0.0 / nal_hrd=none / ip_ratio=1.40 / pb_ratio=1.30 / aq=2:0.85
Language                    : English
Default                    : Yes
Forced                      : No

Audio
ID                          : 7
Format                      : DTS
Format/Info                : Digital Theater Systems
Mode                        : 16
Format settings, Endianness : Big
Codec ID                    : A_DTS
Duration                    : 2h 4mn
Bit rate mode              : Constant
Bit rate                    : 1 509 Kbps
Channel(s)                  : 6 channels
Channel positions          : Front: L C R, Side: L R, LFE
Sampling rate              : 48.0 KHz
Frame rate                  : 93.750 fps (512 spf)
Bit depth                  : 24 bits
Compression mode            : Lossy
Stream size                : 1.32 GiB (10%)
Language                    : English
Default                    : Yes
Forced                      : No

Text #1
ID                          : 1
Format                      : UTF-8
Codec ID                    : S_TEXT/UTF8
Codec ID/Info              : UTF-8 Plain Text
Language                    : Danish
Default                    : No
Forced                      : No

Text #2
ID                          : 2
Format                      : UTF-8
Codec ID                    : S_TEXT/UTF8
Codec ID/Info              : UTF-8 Plain Text
Language                    : Greek
Default                    : No
Forced                      : No

Text #3
ID                          : 3
Format                      : UTF-8
Codec ID                    : S_TEXT/UTF8
Codec ID/Info              : UTF-8 Plain Text
Language                    : Indonesian
Default                    : No
Forced                      : No

Text #4
ID                          : 4
Format                      : UTF-8
Codec ID                    : S_TEXT/UTF8
Codec ID/Info              : UTF-8 Plain Text
Language                    : Malay
Default                    : No
Forced                      : No

Text #5
ID                          : 5
Format                      : UTF-8
Codec ID                    : S_TEXT/UTF8
Codec ID/Info              : UTF-8 Plain Text
Language                    : Portuguese
Default                    : No
Forced                      : No

Text #6
ID                          : 8
Format                      : UTF-8
Codec ID                    : S_TEXT/UTF8
Codec ID/Info              : UTF-8 Plain Text
Language                    : English
Default                    : No
Forced                      : No

Text #7
ID                          : 9
Format                      : UTF-8
Codec ID                    : S_TEXT/UTF8
Codec ID/Info              : UTF-8 Plain Text
Language                    : Turkish
Default                    : No
Forced                      : No

Text #8
ID                          : 10
Format                      : UTF-8
Codec ID                    : S_TEXT/UTF8
Codec ID/Info              : UTF-8 Plain Text
Language                    : Persian
Default                    : No
Forced                      : No

Text #9
ID                          : 11
Format                      : UTF-8
Codec ID                    : S_TEXT/UTF8
Codec ID/Info              : UTF-8 Plain Text
Language                    : Hebrew
Default                    : No
Forced                      : No

Text #10
ID                          : 12
Format                      : UTF-8
Codec ID                    : S_TEXT/UTF8
Codec ID/Info              : UTF-8 Plain Text
Language                    : Arabic
Default                    : No
Forced                      : No


kód:

http://www.fastshare.cz/6093432/hdb08ce31msyn.part1.rar
http://www.fastshare.cz/6093436/hdb08ce31msyn.part2.rar
http://www.fastshare.cz/6093442/hdb08ce31msyn.part3.rar
http://www.fastshare.cz/6093447/hdb08ce31msyn.part4.rar
http://www.fastshare.cz/6093496/hdb08ce31msyn.part5.rar
http://www.fastshare.cz/6093545/hdb08ce31msyn.part6.rar
http://www.fastshare.cz/6093573/hdb08ce31msyn.part7.rar

kód:

http://file-share.top/file/216042/hdb08ce31msyn-part1-rar
http://file-share.top/file/216054/hdb08ce31msyn-part2-rar
http://file-share.top/file/216059/hdb08ce31msyn-part3-rar
http://file-share.top/file/216062/hdb08ce31msyn-part4-rar
http://file-share.top/file/216068/hdb08ce31msyn-part5-rar
http://file-share.top/file/216071/hdb08ce31msyn-part6-rar
http://file-share.top/file/216074/hdb08ce31msyn-part7-rar



Upload 3% na opravu dat

no pass
Návrat hore Goto down
Zobrazit informácie o autorovi
 
Now You See Me / Podfukáři (2013)
Zobraziť predchádzajúcu tému Zobraziť nasledujúcu tému Návrat hore 
Strana 1 z 1

Povolenie tohoto fóra:Nemôžete odpovedať na témy v tomto fóre.
Warforum :: Sťahuj :: FILMY-
Prejdi na: