Warforum

stahuj.forumonline.biz
 
DomovFAQHľadaťRegistráciaZoznam užívateľovUžívateľské skupinyPrihlásenie

Share | 
 

 Lone Survivor / Na život a na smrt (2013)

Zobraziť predchádzajúcu tému Zobraziť nasledujúcu tému Goto down 
AutorSpráva
Jack86



Počet príspevkov : 110
Registration date : 10.02.2010

OdoslaťPredmet: Lone Survivor / Na život a na smrt (2013)   Ut jún 21, 2016 10:19 am




kód:

http://www.csfd.cz/film/297051-na-zivot-a-na-smrt/prehled/
http://www.imdb.com/title/tt1091191/combined


[size=140]Lone.Survivor.2013.1080p.BluRay.x264.DTS-WiKi + titulky[/size]

kód:
Lone.Survivor.2013.1080p.BluRay.x264.DTS-WiKi
Format                      : Matroska
Format version              : Version 2
File size                  : 11.0 GiB
Duration                    : 2h 1mn
Overall bit rate            : 13.0 Mbps
Encoded date                : UTC 2014-05-08 04:54:19
Writing application        : mkvmerge v5.8.0 ('No Sleep / Pillow') built on Sep  2 2012 15:37:04
Writing library            : libebml v1.2.3 + libmatroska v1.3.0

Video
ID                          : 1
Format                      : AVC
Format/Info                : Advanced Video Codec
Format profile              : High@L4.1
Format settings, CABAC      : Yes
Format settings, ReFrames  : 5 frames
Codec ID                    : V_MPEG4/ISO/AVC
Duration                    : 2h 1mn
Bit rate                    : 11.5 Mbps
Width                      : 1 920 pixels
Height                      : 800 pixels
Display aspect ratio        : 2.40:1
Frame rate mode            : Constant
Frame rate                  : 23.976 (24000/1001) fps
Color space                : YUV
Chroma subsampling          : 4:2:0
Bit depth                  : 8 bits
Scan type                  : Progressive
Bits/(Pixel*Frame)          : 0.311
Stream size                : 9.50 GiB (86%)
Writing library            : x264 core 136 r2348+704+51 d1baef6 tMod [8-bit@all X86_64]
Encoding settings          : cabac=1 / ref=5 / deblock=1:-3:-3 / analyse=0x3:0x133 / me=umh / subme=11 / psy=1 / fade_compensate=0.00 / psy_rd=1.05:0.00 / mixed_ref=1 / me_range=64 / chroma_me=1 / trellis=2 / 8x8dct=1 / cqm=0 / deadzone=21,11 / fast_pskip=0 / chroma_qp_offset=-2 / threads=12 / lookahead_threads=3 / sliced_threads=0 / nr=0 / decimate=0 / interlaced=0 / bluray_compat=0 / constrained_intra=0 / fgo=0 / bframes=10 / b_pyramid=2 / b_adapt=2 / b_bias=0 / direct=3 / weightb=1 / open_gop=0 / weightp=2 / keyint=250 / keyint_min=23 / scenecut=40 / intra_refresh=0 / rc_lookahead=120 / rc=2pass / mbtree=0 / bitrate=11463 / ratetol=1.0 / qcomp=0.75 / qpmin=0:0:0 / qpmax=69:69:69 / qpstep=4 / cplxblur=20.0 / qblur=0.5 / vbv_maxrate=50000 / vbv_bufsize=50000 / nal_hrd=none / ip_ratio=1.40 / pb_ratio=1.30 / aq=1:0.95 / aq-sensitivity=10.00 / aq-factor=1.00:1.00:1.00 / aq2=0 / aq3=0
Default                    : Yes
Forced                      : No
Color range                : Limited
Matrix coefficients        : BT.709

Audio
ID                          : 2
Format                      : DTS
Format/Info                : Digital Theater Systems
Mode                        : 16
Format settings, Endianness : Big
Codec ID                    : A_DTS
Duration                    : 2h 1mn
Bit rate mode              : Constant
Bit rate                    : 1 509 Kbps
Channel(s)                  : 6 channels
Channel positions          : Front: L C R, Side: L R, LFE
Sampling rate              : 48.0 KHz
Frame rate                  : 93.750 fps (512 spf)
Bit depth                  : 24 bits
Compression mode            : Lossy
Stream size                : 1.28 GiB (12%)
Language                    : English
Default                    : Yes
Forced                      : No

Menu
00:00:00.000                : en:00:00:00.000
00:05:59.192                : en:00:05:59.192
00:09:59.057                : en:00:09:59.057
00:17:18.371                : en:00:17:18.371
00:24:19.750                : en:00:24:19.750
00:33:20.499                : en:00:33:20.499
00:45:49.580                : en:00:45:49.580
00:53:06.934                : en:00:53:06.934
01:01:54.211                : en:01:01:54.211
01:09:18.780                : en:01:09:18.780
01:16:07.188                : en:01:16:07.188
01:22:24.481                : en:01:22:24.481
01:28:50.492                : en:01:28:50.492
01:36:46.426                : en:01:36:46.426
01:43:45.678                : en:01:43:45.678
01:52:13.227                : en:01:52:13.227


kód:

http://www.fastshare.cz/6093272/wb0831sl.part1.rar
http://www.fastshare.cz/6093283/wb0831sl.part2.rar
http://www.fastshare.cz/6093292/wb0831sl.part3.rar
http://www.fastshare.cz/6093301/wb0831sl.part4.rar
http://www.fastshare.cz/6093307/wb0831sl.part5.rar
http://www.fastshare.cz/6093315/wb0831sl.part6.rar

kód:

http://file-share.top/file/215971/wb0831sl-part1-rar
http://file-share.top/file/215978/wb0831sl-part2-rar
http://file-share.top/file/215981/wb0831sl-part3-rar
http://file-share.top/file/215986/wb0831sl-part4-rar
http://file-share.top/file/215994/wb0831sl-part5-rar
http://file-share.top/file/215996/wb0831sl-part6-rar



Upload 3% na opravu dat

no pass
Návrat hore Goto down
Zobrazit informácie o autorovi
 
Lone Survivor / Na život a na smrt (2013)
Zobraziť predchádzajúcu tému Zobraziť nasledujúcu tému Návrat hore 
Strana 1 z 1

Povolenie tohoto fóra:Nemôžete odpovedať na témy v tomto fóre.
Warforum :: Sťahuj :: FILMY-
Prejdi na: