Warforum

stahuj.forumonline.biz
 
DomovFAQHľadaťRegistráciaZoznam užívateľovUžívateľské skupinyPrihlásenie

Share | 
 

 Fury / Železná srdce (2014)

Zobraziť predchádzajúcu tému Zobraziť nasledujúcu tému Goto down 
AutorSpráva
Jack86



Počet príspevkov : 110
Registration date : 10.02.2010

OdoslaťPredmet: Fury / Železná srdce (2014)   Po jún 20, 2016 12:27 am




kód:

http://www.csfd.cz/film/339501-zelezna-srdce/prehled/
http://www.imdb.com/title/tt2713180/combined


[size=140]Fury.2014.1080p.BluRay.DTS.x264-HDAccess + titulky[/size]

kód:
Fury.2014.1080p.BluRay.DTS.x264-HDAccess
Format                      : Matroska
Format version              : Version 4 / Version 2
File size                  : 14.4 GiB
Duration                    : 2h 14mn
Overall bit rate            : 15.3 Mbps
Encoded date                : UTC 2015-01-14 11:17:23
Writing application        : mkvmerge v7.5.0 ('Glass Culture') 64bit built on Jan  4 2015 16:48:44
Writing library            : libebml v1.3.1 + libmatroska v1.4.2

Video
ID                          : 1
Format                      : AVC
Format/Info                : Advanced Video Codec
Format profile              : High@L4.1
Format settings, CABAC      : Yes
Format settings, ReFrames  : 5 frames
Codec ID                    : V_MPEG4/ISO/AVC
Duration                    : 2h 14mn
Bit rate                    : 13.8 Mbps
Width                      : 1 920 pixels
Height                      : 804 pixels
Display aspect ratio        : 2.40:1
Frame rate mode            : Constant
Frame rate                  : 23.976 (24000/1001) fps
Color space                : YUV
Chroma subsampling          : 4:2:0
Bit depth                  : 8 bits
Scan type                  : Progressive
Bits/(Pixel*Frame)          : 0.372
Stream size                : 13.0 GiB (90%)
Writing library            : x264 core 142 r2479 dd79a61
Encoding settings          : cabac=1 / ref=5 / deblock=1:-3:-3 / analyse=0x3:0x133 / me=umh / subme=10 / psy=1 / psy_rd=1.02:0.00 / mixed_ref=1 / me_range=48 / chroma_me=1 / trellis=2 / 8x8dct=1 / cqm=0 / deadzone=21,11 / fast_pskip=1 / chroma_qp_offset=-2 / threads=16 / lookahead_threads=2 / sliced_threads=0 / nr=0 / decimate=1 / interlaced=0 / bluray_compat=0 / constrained_intra=0 / bframes=9 / b_pyramid=2 / b_adapt=2 / b_bias=0 / direct=3 / weightb=1 / open_gop=0 / weightp=2 / keyint=250 / keyint_min=23 / scenecut=40 / intra_refresh=0 / rc_lookahead=100 / rc=crf / mbtree=0 / crf=17.6 / qcomp=0.70 / qpmin=0 / qpmax=69 / qpstep=4 / vbv_maxrate=50000 / vbv_bufsize=62500 / crf_max=0.0 / nal_hrd=none / filler=0 / ip_ratio=1.20 / pb_ratio=1.10 / aq=1:0.70
Language                    : English
Default                    : Yes
Forced                      : No

Audio
ID                          : 2
Format                      : DTS
Format/Info                : Digital Theater Systems
Mode                        : 16
Format settings, Endianness : Big
Codec ID                    : A_DTS
Duration                    : 2h 14mn
Bit rate mode              : Constant
Bit rate                    : 1 509 Kbps
Channel(s)                  : 6 channels
Channel positions          : Front: L C R, Side: L R, LFE
Sampling rate              : 48.0 KHz
Frame rate                  : 93.750 fps (512 spf)
Bit depth                  : 24 bits
Compression mode            : Lossy
Stream size                : 1.42 GiB (10%)
Language                    : English
Default                    : Yes
Forced                      : No

Text #1
ID                          : 3
Format                      : UTF-8
Codec ID                    : S_TEXT/UTF8
Codec ID/Info              : UTF-8 Plain Text
Duration                    : 1h 36mn
Bit rate                    : 1 bps
Count of elements          : 77
Stream size                : 1.28 KiB (0%)
Language                    : English
Default                    : Yes
Forced                      : Yes

Text #2
ID                          : 4
Format                      : UTF-8
Codec ID                    : S_TEXT/UTF8
Codec ID/Info              : UTF-8 Plain Text
Duration                    : 2h 3mn
Bit rate                    : 46 bps
Count of elements          : 1469
Stream size                : 42.3 KiB (0%)
Language                    : English
Default                    : No
Forced                      : No

Text #3
ID                          : 5
Format                      : UTF-8
Codec ID                    : S_TEXT/UTF8
Codec ID/Info              : UTF-8 Plain Text
Duration                    : 2h 14mn
Bit rate                    : 52 bps
Count of elements          : 1964
Stream size                : 51.2 KiB (0%)
Title                      : SDH
Language                    : English
Default                    : No
Forced                      : No

Text #4
ID                          : 6
Format                      : UTF-8
Codec ID                    : S_TEXT/UTF8
Codec ID/Info              : UTF-8 Plain Text
Duration                    : 2h 13mn
Bit rate                    : 32 bps
Count of elements          : 1270
Stream size                : 31.4 KiB (0%)
Language                    : French
Default                    : No
Forced                      : No

Text #5
ID                          : 7
Format                      : UTF-8
Codec ID                    : S_TEXT/UTF8
Codec ID/Info              : UTF-8 Plain Text
Duration                    : 2h 8mn
Bit rate                    : 40 bps
Count of elements          : 1463
Stream size                : 38.4 KiB (0%)
Language                    : Spanish
Default                    : No
Forced                      : No

Menu
00:00:00.000                : en:00:00:00.000
00:07:58.228                : en:00:07:58.228
00:20:24.682                : en:00:20:24.682
00:26:38.931                : en:00:26:38.931
00:37:26.035                : en:00:37:26.035
00:43:24.060                : en:00:43:24.060
00:51:59.408                : en:00:51:59.408
01:01:20.302                : en:01:01:20.302
01:13:46.547                : en:01:13:46.547
01:18:29.705                : en:01:18:29.705
01:26:21.802                : en:01:26:21.802
01:29:50.427                : en:01:29:50.427
01:35:39.192                : en:01:35:39.192
01:48:12.111                : en:01:48:12.111
01:57:49.980                : en:01:57:49.980
02:00:41.609                : en:02:00:41.609


kód:

http://www.fastshare.cz/6090681/adhdb0841f.part1.rar
http://www.fastshare.cz/6090690/adhdb0841f.part2.rar
http://www.fastshare.cz/6090696/adhdb0841f.part3.rar
http://www.fastshare.cz/6090705/adhdb0841f.part4.rar
http://www.fastshare.cz/6090716/adhdb0841f.part5.rar
http://www.fastshare.cz/6090724/adhdb0841f.part6.rar
http://www.fastshare.cz/6090731/adhdb0841f.part7.rar
http://www.fastshare.cz/6090736/adhdb0841f.part8.rar

kód:

http://file-share.top/file/214925/adhdb0841f-part1-rar
http://file-share.top/file/214981/adhdb0841f-part2-rar
http://file-share.top/file/215013/adhdb0841f-part3-rar
http://file-share.top/file/215017/adhdb0841f-part4-rar
http://file-share.top/file/215021/adhdb0841f-part5-rar
http://file-share.top/file/215026/adhdb0841f-part6-rar
http://file-share.top/file/215031/adhdb0841f-part7-rar
http://file-share.top/file/215033/adhdb0841f-part8-rar



Upload 3% na opravu dat

no pass
Návrat hore Goto down
Zobrazit informácie o autorovi
 
Fury / Železná srdce (2014)
Zobraziť predchádzajúcu tému Zobraziť nasledujúcu tému Návrat hore 
Strana 1 z 1

Povolenie tohoto fóra:Nemôžete odpovedať na témy v tomto fóre.
Warforum :: Sťahuj :: FILMY-
Prejdi na: