Warforum

stahuj.forumonline.biz
 
DomovFAQHľadaťRegistráciaZoznam užívateľovUžívateľské skupinyPrihlásenie

Share | 
 

 Ghoul (2015)

Zobraziť predchádzajúcu tému Zobraziť nasledujúcu tému Goto down 
AutorSpráva
Jack86



Počet príspevkov : 110
Registration date : 10.02.2010

OdoslaťPredmet: Ghoul (2015)   Ne jún 19, 2016 1:32 am




kód:

http://www.csfd.cz/film/402105-ghoul/prehled/
http://www.imdb.com/title/tt3101132/combined


[size=140]Ghoul.2015.1080p.BluRay.DTS.x264.CZ-TreZzoR[/size]


Audio: EN/CZ
Titulky: CZ/CZ (F)


kód:
Ghoul.2015.1080p.BluRay.DTS.x264.CZ-TreZzoR
Format                      : Matroska
Format version              : Version 2
File size                  : 11.2 GiB
Duration                    : 1h 26mn
Overall bit rate            : 18.7 Mbps
Encoded date                : UTC 2015-07-05 16:18:33
Writing application        : mkvmerge v8.1.0 ('Psychedelic Postcard') 32bit
Writing library            : libebml v1.3.1 + libmatroska v1.4.2

Video
ID                          : 1
Format                      : AVC
Format/Info                : Advanced Video Codec
Format profile              : High@L4.1
Format settings, CABAC      : Yes
Format settings, ReFrames  : 4 frames
Codec ID                    : V_MPEG4/ISO/AVC
Duration                    : 1h 26mn
Bit rate                    : 15.0 Mbps
Width                      : 1 920 pixels
Height                      : 1 080 pixels
Display aspect ratio        : 16:9
Frame rate mode            : Constant
Frame rate                  : 23.976 (24000/1001) fps
Color space                : YUV
Chroma subsampling          : 4:2:0
Bit depth                  : 8 bits
Scan type                  : Progressive
Bits/(Pixel*Frame)          : 0.302
Stream size                : 9.03 GiB (80%)
Title                      : Ghoul.2015.1080p.BluRay.DTS.x264.CZ-TreZzoR
Writing library            : x264 core 144 r2525kMod 40bb568
Encoding settings          : cabac=1 / ref=4 / deblock=1:-3:-3 / analyse=0x3:0x133 / me=umh / subme=10 / psy=1 / fade_compensate=0.00 / psy_rd=1.10:0.00 / mixed_ref=1 / me_range=48 / chroma_me=1 / trellis=2 / 8x8dct=1 / cqm=0 / deadzone=21,11 / fast_pskip=0 / chroma_qp_offset=-2 / threads=18 / lookahead_threads=3 / sliced_threads=0 / nr=0 / decimate=0 / interlaced=0 / bluray_compat=0 / constrained_intra=0 / fgo=0 / bframes=8 / b_pyramid=2 / b_adapt=2 / b_bias=0 / direct=3 / weightb=1 / open_gop=0 / weightp=2 / keyint=250 / keyint_min=23 / scenecut=40 / intra_refresh=0 / rc_lookahead=60 / rc=crf / mbtree=0 / crf=18.4000 / qcomp=0.65 / qpmin=0 / qpmax=69 / qpstep=4 / vbv_maxrate=50000 / vbv_bufsize=62500 / crf_max=0.0 / nal_hrd=none / filler=0 / ip_ratio=1.10 / pb_ratio=1.10 / aq=1:0.60
Language                    : English
Default                    : Yes
Forced                      : No

Audio #1
ID                          : 2
Format                      : AC-3
Format/Info                : Audio Coding 3
Mode extension              : CM (complete main)
Format settings, Endianness : Big
Codec ID                    : A_AC3
Duration                    : 1h 26mn
Bit rate mode              : Constant
Bit rate                    : 640 Kbps
Channel(s)                  : 6 channels
Channel positions          : Front: L C R, Side: L R, LFE
Sampling rate              : 48.0 KHz
Frame rate                  : 31.250 fps (1536 spf)
Compression mode            : Lossy
Stream size                : 394 MiB (3%)
Title                      : DD5.1
Language                    : Czech
Default                    : Yes
Forced                      : No

Audio #2
ID                          : 3
Format                      : DTS
Format/Info                : Digital Theater Systems
Mode                        : 16
Format settings, Endianness : Big
Codec ID                    : A_DTS
Duration                    : 1h 26mn
Bit rate mode              : Constant
Bit rate                    : 1 509 Kbps
Channel(s)                  : 6 channels
Channel positions          : Front: L C R, Side: L R, LFE
Sampling rate              : 48.0 KHz
Frame rate                  : 93.750 fps (512 spf)
Bit depth                  : 16 bits
Compression mode            : Lossy
Stream size                : 930 MiB (8%)
Title                      : DTS
Language                    : Czech
Default                    : No
Forced                      : No

Audio #3
ID                          : 4
Format                      : DTS
Format/Info                : Digital Theater Systems
Mode                        : 16
Format settings, Endianness : Big
Codec ID                    : A_DTS
Duration                    : 1h 26mn
Bit rate mode              : Constant
Bit rate                    : 1 509 Kbps
Channel(s)                  : 6 channels
Channel positions          : Front: L C R, Side: L R, LFE
Sampling rate              : 48.0 KHz
Frame rate                  : 93.750 fps (512 spf)
Bit depth                  : 16 bits
Compression mode            : Lossy
Stream size                : 930 MiB (8%)
Language                    : English
Default                    : No
Forced                      : No

Text #1
ID                          : 5
Format                      : UTF-8
Codec ID                    : S_TEXT/UTF8
Codec ID/Info              : UTF-8 Plain Text
Duration                    : 1h 20mn
Bit rate                    : 6 bps
Count of elements          : 121
Stream size                : 4.04 KiB (0%)
Title                      : forced
Language                    : Czech
Default                    : Yes
Forced                      : Yes

Text #2
ID                          : 6
Format                      : UTF-8
Codec ID                    : S_TEXT/UTF8
Codec ID/Info              : UTF-8 Plain Text
Duration                    : 1h 20mn
Bit rate                    : 55 bps
Count of elements          : 932
Stream size                : 32.9 KiB (0%)
Language                    : Czech
Default                    : No
Forced                      : No

Menu
00:00:00.000                : en:00:00:00.000
00:07:56.976                : en:00:07:56.976
00:17:21.749                : en:00:17:21.749
00:22:01.403                : en:00:22:01.403
00:30:12.936                : en:00:30:12.936
00:36:36.361                : en:00:36:36.361
00:43:06.667                : en:00:43:06.667
00:50:52.800                : en:00:50:52.800
01:00:18.907                : en:01:00:18.907
01:07:44.936                : en:01:07:44.936
01:12:56.831                : en:01:12:56.831
01:21:04.693                : en:01:21:04.693

kód:

http://www.fastshare.cz/6088439/tb0851g.part1.rar
http://www.fastshare.cz/6088443/tb0851g.part2.rar
http://www.fastshare.cz/6088446/tb0851g.part3.rar
http://www.fastshare.cz/6088449/tb0851g.part4.rar
http://www.fastshare.cz/6088454/tb0851g.part5.rar
http://www.fastshare.cz/6088462/tb0851g.part6.rar

kód:

http://file-share.top/file/214315/tb0851g-part1-rar
http://file-share.top/file/214316/tb0851g-part2-rar
http://file-share.top/file/214317/tb0851g-part6-rar
http://file-share.top/file/214319/tb0851g-part3-rar
http://file-share.top/file/214320/tb0851g-part4-rar
http://file-share.top/file/214322/tb0851g-part5-rar


Upload 3% na opravu dat

no pass
Návrat hore Goto down
Zobrazit informácie o autorovi
 
Ghoul (2015)
Zobraziť predchádzajúcu tému Zobraziť nasledujúcu tému Návrat hore 
Strana 1 z 1

Povolenie tohoto fóra:Nemôžete odpovedať na témy v tomto fóre.
Warforum :: Sťahuj :: FILMY-
Prejdi na: