Warforum

stahuj.forumonline.biz
 
DomovFAQHľadaťRegistráciaZoznam užívateľovUžívateľské skupinyPrihlásenie

Share | 
 

 Interstellar (2014)

Zobraziť predchádzajúcu tému Zobraziť nasledujúcu tému Goto down 
AutorSpráva
Jack86



Počet príspevkov : 110
Registration date : 10.02.2010

OdoslaťPredmet: Interstellar (2014)   St jún 15, 2016 11:10 pm




kód:

http://www.csfd.cz/film/227786-interstellar/prehled/
http://www.imdb.com/title/tt0816692/combined


[size=140]Interstellar.2014.IMAX.1080p.Bluray.x264.DTS-EVO + titulky[/size]


Audio: EN
Titulky: CZ


kód:
Interstellar.2014.IMAX.1080p.Bluray.x264.DTS-EVO
Format                      : Matroska
Format version              : Version 4 / Version 2
File size                  : 13.4 GiB
Duration                    : 2h 49mn
Overall bit rate            : 11.4 Mbps
Movie name                  : EVO
Encoded date                : UTC 2015-03-15 02:11:07
Writing application        : mkvmerge v6.7.0 ('Back to the Ground') 64bit built on Jan  8 2014 15:10:52
Writing library            : libebml v1.3.0 + libmatroska v1.4.1

Video
ID                          : 2
Format                      : AVC
Format/Info                : Advanced Video Codec
Format profile              : High@L4.1
Format settings, CABAC      : Yes
Format settings, ReFrames  : 4 frames
Codec ID                    : V_MPEG4/ISO/AVC
Duration                    : 2h 49mn
Bit rate                    : 10 000 Kbps
Width                      : 1 920 pixels
Height                      : 1 080 pixels
Display aspect ratio        : 16:9
Frame rate mode            : Constant
Frame rate                  : 23.976 (24000/1001) fps
Color space                : YUV
Chroma subsampling          : 4:2:0
Bit depth                  : 8 bits
Scan type                  : Progressive
Bits/(Pixel*Frame)          : 0.201
Stream size                : 11.4 GiB (85%)
Writing library            : x264 core 130 r2273 b3065e6
Encoding settings          : cabac=1 / ref=1 / deblock=1:0:0 / analyse=0x3:0x113 / me=hex / subme=2 / psy=1 / psy_rd=1.00:0.00 / mixed_ref=0 / me_range=16 / chroma_me=1 / trellis=0 / 8x8dct=1 / cqm=0 / deadzone=21,11 / fast_pskip=1 / chroma_qp_offset=0 / threads=6 / lookahead_threads=2 / sliced_threads=0 / nr=0 / decimate=1 / interlaced=0 / bluray_compat=0 / constrained_intra=0 / bframes=3 / b_pyramid=2 / b_adapt=1 / b_bias=0 / direct=1 / weightb=1 / open_gop=0 / weightp=1 / keyint=240 / keyint_min=24 / scenecut=40 / intra_refresh=0 / rc_lookahead=10 / rc=abr / mbtree=1 / bitrate=10000 / ratetol=1.0 / qcomp=0.60 / qpmin=0 / qpmax=69 / qpstep=4 / vbv_maxrate=62500 / vbv_bufsize=78125 / nal_hrd=none / ip_ratio=1.40 / aq=1:1.00
Language                    : English
Default                    : Yes
Forced                      : No
Color range                : Limited
Color primaries            : BT.709
Transfer characteristics    : BT.709
Matrix coefficients        : BT.709

Audio
ID                          : 1
Format                      : DTS
Format/Info                : Digital Theater Systems
Mode                        : 16
Format settings, Endianness : Big
Codec ID                    : A_DTS
Duration                    : 2h 49mn
Bit rate mode              : Constant
Bit rate                    : 1 509 Kbps
Channel(s)                  : 6 channels
Channel positions          : Front: L C R, Side: L R, LFE
Sampling rate              : 48.0 KHz
Frame rate                  : 93.750 fps (512 spf)
Bit depth                  : 24 bits
Compression mode            : Lossy
Stream size                : 1.78 GiB (13%)
Title                      : DTS
Language                    : English
Default                    : Yes
Forced                      : No

kód:

http://www.fastshare.cz/6076247/edb0801i4102i.part1.rar
http://www.fastshare.cz/6076252/edb0801i4102i.part2.rar
http://www.fastshare.cz/6076257/edb0801i4102i.part3.rar
http://www.fastshare.cz/6076266/edb0801i4102i.part4.rar
http://www.fastshare.cz/6076269/edb0801i4102i.part5.rar
http://www.fastshare.cz/6076273/edb0801i4102i.part6.rar
http://www.fastshare.cz/6076280/edb0801i4102i.part7.rar

kód:

http://file-share.top/file/212171/edb0801i4102i-part1-rar
http://file-share.top/file/212173/edb0801i4102i-part2-rar
http://file-share.top/file/212175/edb0801i4102i-part3-rar
http://file-share.top/file/212177/edb0801i4102i-part4-rar
http://file-share.top/file/212178/edb0801i4102i-part5-rar
http://file-share.top/file/212179/edb0801i4102i-part6-rar
http://file-share.top/file/212180/edb0801i4102i-part7-rar


Upload 3% na opravu dat

no pass
Návrat hore Goto down
Zobrazit informácie o autorovi
 
Interstellar (2014)
Zobraziť predchádzajúcu tému Zobraziť nasledujúcu tému Návrat hore 
Strana 1 z 1

Povolenie tohoto fóra:Nemôžete odpovedať na témy v tomto fóre.
Warforum :: Sťahuj :: FILMY-
Prejdi na: