Warforum

stahuj.forumonline.biz
 
DomovFAQHľadaťRegistráciaZoznam užívateľovUžívateľské skupinyPrihlásenie

Share | 
 

 Warcraft / Warcraft: První střet (2016)

Zobraziť predchádzajúcu tému Zobraziť nasledujúcu tému Goto down 
AutorSpráva
Jack86



Počet príspevkov : 110
Registration date : 10.02.2010

OdoslaťPredmet: Warcraft / Warcraft: První střet (2016)   Ut jún 14, 2016 12:09 am




kód:

http://www.csfd.cz/film/233328-warcraft-prvni-stret/prehled/
http://www.imdb.com/title/tt0803096/combined


[size=140]Warcraft 2016 1080p HDTC KORSUB x264 AC3 5.1 TiTAN + titulky[/size]


Audio: EN
Titulky: CZ


kód:
Warcraft 2016 1080p HDTC KORSUB x264 AC3 5.1 TiTAN
Format                      : Matroska
Format version              : Version 2
File size                  : 3.99 GiB
Duration                    : 2h 3mn
Overall bit rate mode      : Variable
Overall bit rate            : 4 616 Kbps
Encoded date                : UTC 2016-06-09 11:40:30
Writing application        : mkvmerge v8.5.2 ('Crosses') 32bit
Writing library            : libebml v1.3.3 + libmatroska v1.4.4

Video
ID                          : 1
Format                      : AVC
Format/Info                : Advanced Video Codec
Format profile              : High@L4.1
Format settings, CABAC      : Yes
Format settings, ReFrames  : 3 frames
Codec ID                    : V_MPEG4/ISO/AVC
Duration                    : 2h 3mn
Bit rate mode              : Variable
Bit rate                    : 4 166 Kbps
Maximum bit rate            : 40.0 Mbps
Width                      : 1 912 pixels
Height                      : 784 pixels
Display aspect ratio        : 2.40:1
Frame rate mode            : Constant
Frame rate                  : 29.970 (30000/1001) fps
Color space                : YUV
Chroma subsampling          : 4:2:0
Bit depth                  : 8 bits
Scan type                  : Progressive
Bits/(Pixel*Frame)          : 0.093
Stream size                : 3.60 GiB (90%)
Writing library            : x264 core 148 r2638 7599210
Encoding settings          : cabac=1 / ref=4 / deblock=1:-1:-1 / analyse=0x3:0x133 / me=umh / subme=10 / psy=1 / psy_rd=1.00:0.15 / mixed_ref=1 / me_range=24 / chroma_me=1 / trellis=2 / 8x8dct=1 / cqm=0 / deadzone=21,11 / fast_pskip=1 / chroma_qp_offset=-3 / threads=12 / lookahead_threads=1 / sliced_threads=0 / slices=4 / nr=0 / decimate=1 / interlaced=0 / bluray_compat=0 / constrained_intra=0 / bframes=3 / b_pyramid=1 / b_adapt=2 / b_bias=0 / direct=3 / weightb=1 / open_gop=0 / weightp=0 / keyint=29 / keyint_min=2 / scenecut=40 / intra_refresh=0 / rc_lookahead=29 / rc=crf / mbtree=1 / crf=24.5 / qcomp=0.60 / qpmin=10 / qpmax=51 / qpstep=4 / vbv_maxrate=40000 / vbv_bufsize=30000 / crf_max=0.0 / nal_hrd=vbr / filler=0 / ip_ratio=1.40 / aq=1:1.00
Default                    : Yes
Forced                      : No
Color range                : Full
Color primaries            : BT.709
Transfer characteristics    : BT.709
Matrix coefficients        : BT.709

Audio
ID                          : 2
Format                      : AC-3
Format/Info                : Audio Coding 3
Mode extension              : CM (complete main)
Format settings, Endianness : Big
Codec ID                    : A_AC3
Duration                    : 2h 3mn
Bit rate mode              : Constant
Bit rate                    : 448 Kbps
Channel(s)                  : 6 channels
Channel positions          : Front: L C R, Side: L R, LFE
Sampling rate              : 48.0 KHz
Frame rate                  : 31.250 fps (1536 spf)
Compression mode            : Lossy
Stream size                : 397 MiB (10%)
Default                    : Yes
Forced                      : No

kód:

http://www.fastshare.cz/6071505/warcraft-2016-1080p-hdtc-korsub-x264-ac3-5.1-titan.mkv
http://www.fastshare.cz/6078986/warcraft-2016-1080p-hdtc-korsub-x264-ac3-5.1-titan.srt

kód:

http://file-share.top/file/211447/warcraft-2016-1080p-hdtc-korsub-x264-ac3-5-1-titan-mkv
http://file-share.top/file/212616/warcraft-2016-1080p-hdtc-korsub-x264-ac3-5-1-titan-srt

kód:

http://www.fastshare.cz/6079000/tskth08016102w.rar

kód:

http://file-share.top/file/212633/tskth08016102w-rar

kód:

http://www.fastshare.cz/6078930/tskth08016102w.part1.rar
http://www.fastshare.cz/6078944/tskth08016102w.part2.rar
http://www.fastshare.cz/6078947/tskth08016102w.part3.rar

kód:

http://file-share.top/file/212609/tskth08016102w-part1-rar
http://file-share.top/file/212611/tskth08016102w-part2-rar
http://file-share.top/file/212612/tskth08016102w-part3-rar


Upload 3% na opravu dat

no pass
Návrat hore Goto down
Zobrazit informácie o autorovi
Jack86



Počet príspevkov : 110
Registration date : 10.02.2010

OdoslaťPredmet: Re: Warcraft / Warcraft: První střet (2016)   Ut jún 14, 2016 9:50 am




kód:

http://www.csfd.cz/film/233328-warcraft-prvni-stret/prehled/
http://www.imdb.com/title/tt0803096/combined


[size=140]Warcraft 2016 1080p HDTC KORSUB x264 AC3 5.1 TiTAN CZ/EN + titulky[/size]


Audio: EN / CZ
Titulky: CZ


kód:
Warcraft 2016 1080p HDTC KORSUB x264 AC3 5.1 TiTAN
Format                      : Matroska
Format version              : Version 4 / Version 2
File size                  : 4.15 GiB
Duration                    : 2h 3mn
Overall bit rate mode      : Variable
Overall bit rate            : 4 794 Kbps
Encoded date                : UTC 2016-06-13 23:08:14
Writing application        : mkvmerge v9.2.0 ('Photograph') 64bit
Writing library            : libebml v1.3.3 + libmatroska v1.4.4

Video
ID                          : 1
Format                      : AVC
Format/Info                : Advanced Video Codec
Format profile              : High@L4.1
Format settings, CABAC      : Yes
Format settings, ReFrames  : 3 frames
Codec ID                    : V_MPEG4/ISO/AVC
Duration                    : 2h 3mn
Bit rate mode              : Variable
Bit rate                    : 4 166 Kbps
Maximum bit rate            : 40.0 Mbps
Width                      : 1 912 pixels
Height                      : 784 pixels
Display aspect ratio        : 2.40:1
Frame rate mode            : Constant
Frame rate                  : 29.970 (30000/1001) fps
Color space                : YUV
Chroma subsampling          : 4:2:0
Bit depth                  : 8 bits
Scan type                  : Progressive
Bits/(Pixel*Frame)          : 0.093
Stream size                : 3.60 GiB (87%)
Writing library            : x264 core 148 r2638 7599210
Encoding settings          : cabac=1 / ref=4 / deblock=1:-1:-1 / analyse=0x3:0x133 / me=umh / subme=10 / psy=1 / psy_rd=1.00:0.15 / mixed_ref=1 / me_range=24 / chroma_me=1 / trellis=2 / 8x8dct=1 / cqm=0 / deadzone=21,11 / fast_pskip=1 / chroma_qp_offset=-3 / threads=12 / lookahead_threads=1 / sliced_threads=0 / slices=4 / nr=0 / decimate=1 / interlaced=0 / bluray_compat=0 / constrained_intra=0 / bframes=3 / b_pyramid=1 / b_adapt=2 / b_bias=0 / direct=3 / weightb=1 / open_gop=0 / weightp=0 / keyint=29 / keyint_min=2 / scenecut=40 / intra_refresh=0 / rc_lookahead=29 / rc=crf / mbtree=1 / crf=24.5 / qcomp=0.60 / qpmin=10 / qpmax=51 / qpstep=4 / vbv_maxrate=40000 / vbv_bufsize=30000 / crf_max=0.0 / nal_hrd=vbr / filler=0 / ip_ratio=1.40 / aq=1:1.00
Default                    : Yes
Forced                      : No
Color range                : Full
Color primaries            : BT.709
Transfer characteristics    : BT.709
Matrix coefficients        : BT.709

Audio #1
ID                          : 2
Format                      : AC-3
Format/Info                : Audio Coding 3
Mode extension              : CM (complete main)
Format settings, Endianness : Big
Codec ID                    : A_AC3
Duration                    : 2h 3mn
Bit rate mode              : Constant
Bit rate                    : 448 Kbps
Channel(s)                  : 6 channels
Channel positions          : Front: L C R, Side: L R, LFE
Sampling rate              : 48.0 KHz
Frame rate                  : 31.250 fps (1536 spf)
Compression mode            : Lossy
Stream size                : 397 MiB (9%)
Language                    : English
Default                    : Yes
Forced                      : No

Audio #2
ID                          : 3
Format                      : AC-3
Format/Info                : Audio Coding 3
Codec ID                    : A_AC3
Duration                    : 1h 54mn
Bit rate                    : 192 Kbps
Channel(s)                  : 2 channels
Sampling rate              : 44.1 KHz
Frame rate                  : 28.711 fps (1536 spf)
Compression mode            : Lossy
Stream size                : 158 MiB (4%)
Language                    : Czech
Default                    : No
Forced                      : No

kód:

http://www.fastshare.cz/6079514/warcraft-2016-1080p-hdtc-korsub-x264-ac3-5.1-titan-cz-en.mkv
http://www.fastshare.cz/6079515/warcraft-2016-1080p-hdtc-korsub-x264-ac3-5.1-titan-cz-en.srt

kód:

http://file-share.top/file/212689/warcraft-2016-1080p-hdtc-korsub-x264-ac3-5-1-titan-cz-en-mkv
http://file-share.top/file/212690/warcraft-2016-1080p-hdtc-korsub-x264-ac3-5-1-titan-cz-en-srt

kód:

http://www.fastshare.cz/6079464/ectskth0861w.rar

kód:

http://file-share.top/file/212678/ectskth0861w-rar

kód:

http://www.fastshare.cz/6079389/ectskth0861w.part1.rar
http://www.fastshare.cz/6079403/ectskth0861w.part2.rar
http://www.fastshare.cz/6079404/ectskth0861w.part3.rar

kód:

http://file-share.top/file/212668/ectskth0861w-part1-rar
http://file-share.top/file/212670/ectskth0861w-part2-rar
http://file-share.top/file/212671/ectskth0861w-part3-rar


Upload 3% na opravu dat

no pass
Návrat hore Goto down
Zobrazit informácie o autorovi
Jack86



Počet príspevkov : 110
Registration date : 10.02.2010

OdoslaťPredmet: Re: Warcraft / Warcraft: První střet (2016)   Po júl 18, 2016 1:01 am




kód:

http://www.csfd.cz/film/233328-warcraft-prvni-stret/prehled/
http://www.imdb.com/title/tt0803096/combined


[size=140]Warcraft.2016.1080p.HDRip.KORSUB.x264.AAC2.0-STUTTERSHIT + titulky[/size]


Audio: EN
Titulky: CZ


kód:
Warcraft.2016.1080p.HDRip.KORSUB.x264.AAC2.0-STUTTERSHIT
Format                      : MPEG-4
Format profile              : Base Media
Codec ID                    : isom (isom/iso2/avc1/mp41)
File size                  : 3.97 GiB
Duration                    : 2h 1mn
Overall bit rate            : 4 693 Kbps
Movie name                  : Warcraft.2016.1080p.HDRip.KORSUB.x264.AAC2.0-STUTTERSHIT
Writing application        : Lavf57.19.100
Comment                    : Warcraft.2016.1080p.HDRip.KORSUB.x264.AAC2.0-STUTTERSHIT

Video
ID                          : 1
Format                      : AVC
Format/Info                : Advanced Video Codec
Format profile              : High@L4.1
Format settings, CABAC      : Yes
Format settings, ReFrames  : 4 frames
Codec ID                    : avc1
Codec ID/Info              : Advanced Video Coding
Duration                    : 2h 1mn
Bit rate                    : 4 500 Kbps
Width                      : 1 920 pixels
Height                      : 788 pixels
Display aspect ratio        : 2.40:1
Frame rate mode            : Constant
Frame rate                  : 29.970 (29970/1000) fps
Color space                : YUV
Chroma subsampling          : 4:2:0
Bit depth                  : 8 bits
Scan type                  : Progressive
Bits/(Pixel*Frame)          : 0.099
Stream size                : 3.77 GiB (95%)
Title                      : Warcraft.2016.1080p.HDRip.KORSUB.x264.AAC2.0-STUTTERSHIT
Writing library            : x264 core 148 r2597M e86f3a1
Encoding settings          : cabac=1 / ref=4 / deblock=1:0:0 / analyse=0x3:0x113 / me=umh / subme=8 / psy=1 / psy_rd=1.00:0.00 / mixed_ref=1 / me_range=16 / chroma_me=1 / trellis=1 / 8x8dct=1 / cqm=0 / deadzone=21,11 / fast_pskip=1 / chroma_qp_offset=-2 / threads=40 / lookahead_threads=6 / sliced_threads=0 / nr=0 / decimate=1 / interlaced=0 / bluray_compat=0 / constrained_intra=0 / bframes=3 / b_pyramid=2 / b_adapt=2 / b_bias=0 / direct=3 / weightb=1 / open_gop=0 / weightp=2 / keyint=250 / keyint_min=25 / scenecut=40 / intra_refresh=0 / rc_lookahead=50 / rc=abr / mbtree=1 / bitrate=4500 / ratetol=1.0 / qcomp=0.60 / qpmin=0 / qpmax=69 / qpstep=4 / ip_ratio=1.40 / aq=1:1.00

Audio
ID                          : 2
Format                      : AAC
Format/Info                : Advanced Audio Codec
Format profile              : LC
Codec ID                    : 40
Duration                    : 2h 1mn
Bit rate mode              : Constant
Bit rate                    : 224 Kbps
Channel(s)                  : 2 channels
Channel positions          : Front: L R
Sampling rate              : 44.1 KHz
Frame rate                  : 43.066 fps (1024 spf)
Compression mode            : Lossy
Stream size                : 194 MiB (5%)
Title                      : Warcraft.2016.1080p.HDRip.KORSUB.x264.AAC2.0-STUTTERSHIT
Default                    : Yes
Alternate group            : 1

kód:

http://www.fastshare.cz/6198441/warcraft.2016.1080p.hdrip.korsub.x264.aac2.0-stuttershit.mp4
http://www.fastshare.cz/6198442/warcraft.2016.1080p.hdrip.korsub.x264.aac2.0-stuttershit.srt

kód:

http://sdilej.cz/7881344/8Uv4/Warcraft.2016.1080p.HDRip.KORSUB.x264.AAC2.0_STUTTERSHIT.mp4
https://sdilej.cz/7881372/Warcraft.2016.1080p.HDRip.KORSUB.x264.AAC2.0-STUTTERSHIT.srt

kód:

http://www.fastshare.cz/6198332/sbsrkrh0861trw.rar

kód:

http://sdilej.cz/7881315/H7qx/SBSRKRH0861trW.rar

kód:

http://www.fastshare.cz/6198160/sbsrkrh0861trw.part1.rar
http://www.fastshare.cz/6198193/sbsrkrh0861trw.part2.rar
http://www.fastshare.cz/6198195/sbsrkrh0861trw.part3.rar

kód:

http://sdilej.cz/7881286/81Sb/SBSRKRH0861trW.part1.rar
http://sdilej.cz/7881291/_a_i/SBSRKRH0861trW.part2.rar
http://sdilej.cz/7881292/OS94/SBSRKRH0861trW.part3.rar


Upload 3% na opravu dat

no pass
Návrat hore Goto down
Zobrazit informácie o autorovi
Jack86



Počet príspevkov : 110
Registration date : 10.02.2010

OdoslaťPredmet: Re: Warcraft / Warcraft: První střet (2016)   Št august 04, 2016 4:03 am




kód:

http://www.csfd.cz/film/233328-warcraft-prvni-stret/prehled/
http://www.imdb.com/title/tt0803096/combined


[size=140]Warcraft.2016.1080p.WEB-DL.AAC2.0.H264-FGT + titulky[/size]


Audio: EN
Titulky: CZ


kód:
Warcraft.2016.1080p.WEB-DL.AAC2.0.H264-FGT
Format                      : Matroska
Format version              : Version 4 / Version 2
File size                  : 4.04 GiB
Duration                    : 2h 3mn
Overall bit rate            : 4 695 Kbps
Movie name                  : Warcraft.2016.1080p.WEB-DL.AAC2.0.H264-FGT
Encoded date                : UTC 2016-08-03 18:18:13
Writing application        : mkvmerge v9.3.1 ('Mask Machine') 64bit
Writing library            : libebml v1.3.4 + libmatroska v1.4.5
Cover                      : Yes
Attachments                : small_cover.jpg / small_cover_land.jpg / cover.jpg / cover_land.jpg

Video
ID                          : 1
Format                      : AVC
Format/Info                : Advanced Video Codec
Format profile              : High@L4
Format settings, CABAC      : Yes
Format settings, ReFrames  : 5 frames
Codec ID                    : V_MPEG4/ISO/AVC
Duration                    : 2h 3mn
Width                      : 1 916 pixels
Height                      : 784 pixels
Display aspect ratio        : 2.40:1
Frame rate mode            : Constant
Frame rate                  : 23.976 fps
Color space                : YUV
Chroma subsampling          : 4:2:0
Bit depth                  : 8 bits
Scan type                  : Progressive
Title                      : Warcraft.2016.1080p.WEB-DL.AAC2.0.H264-FGT
Language                    : English
Default                    : Yes
Forced                      : No
Color range                : Limited
Color primaries            : BT.709
Transfer characteristics    : BT.709
Matrix coefficients        : BT.709

Audio
ID                          : 2
Format                      : AAC
Format/Info                : Advanced Audio Codec
Format profile              : LC
Codec ID                    : A_AAC
Duration                    : 2h 3mn
Channel(s)                  : 2 channels
Channel positions          : Front: L R
Sampling rate              : 44.1 KHz
Frame rate                  : 43.066 fps (1024 spf)
Compression mode            : Lossy
Title                      : Warcraft.2016.1080p.WEB-DL.AAC2.0.H264-FGT
Language                    : English
Default                    : Yes
Forced                      : No

kód:

http://www.fastshare.cz/6295413/warcraft.2016.1080p.web-dl.aac2.0.h264-fgt.mkv
http://www.fastshare.cz/6295414/warcraft.2016.1080p.web-dl.aac2.0.h264-fgt.srt

kód:

https://sdilej.cz/7909481/Warcraft.2016.1080p.WEB-DL.AAC2.0.H264-FGT.mkv
https://sdilej.cz/7909463/Warcraft.2016.1080p.WEB-DL.AAC2.0.H264-FGT.srt

kód:

http://www.fastshare.cz/6295373/tfbw0861trw.rar

kód:

https://sdilej.cz/7909441/TFBW0861trW.rar

kód:

http://www.fastshare.cz/6295345/tfbw0861trw.part1.rar
http://www.fastshare.cz/6295351/tfbw0861trw.part2.rar
http://www.fastshare.cz/6295353/tfbw0861trw.part3.rar

kód:

https://sdilej.cz/7909414/TFBW0861trW.part1.rar
https://sdilej.cz/7909418/TFBW0861trW.part2.rar
https://sdilej.cz/7909422/TFBW0861trW.part3.rar


Upload 3% na opravu dat

no pass
Návrat hore Goto down
Zobrazit informácie o autorovi
Sponsored content




OdoslaťPredmet: Re: Warcraft / Warcraft: První střet (2016)   

Návrat hore Goto down
 
Warcraft / Warcraft: První střet (2016)
Zobraziť predchádzajúcu tému Zobraziť nasledujúcu tému Návrat hore 
Strana 1 z 1

Povolenie tohoto fóra:Nemôžete odpovedať na témy v tomto fóre.
Warforum :: Sťahuj :: FILMY-
Prejdi na: