Warforum

stahuj.forumonline.biz
 
DomovFAQHľadaťRegistráciaZoznam užívateľovUžívateľské skupinyPrihlásenie

Share | 
 

 Mission: Impossible - Rogue Nation/Mission Impossible(2015)

Zobraziť predchádzajúcu tému Zobraziť nasledujúcu tému Goto down 
AutorSpráva
Jack86



Počet príspevkov : 110
Registration date : 10.02.2010

OdoslaťPredmet: Mission: Impossible - Rogue Nation/Mission Impossible(2015)   Ne jún 12, 2016 11:09 am




kód:

http://www.csfd.cz/film/319631-mission-impossible-narod-grazlu/prehled/
http://www.imdb.com/title/tt2381249/combined


[size=140]Mission.Impossible.Rogue.Nation.2015.1080p.BluRay.DTS.x264-HDMaNiAcs + titulky[/size]


Audio: EN
Titulky: CZ


kód:
Mission.Impossible.Rogue.Nation.2015.1080p.BluRay.DTS.x264-HDMaNiAcs
Format                      : Matroska
Format version              : Version 4 / Version 2
File size                  : 18.1 GiB
Duration                    : 2h 11mn
Overall bit rate            : 19.7 Mbps
Encoded date                : UTC 2015-11-02 18:17:44
Writing application        : mkvmerge v8.3.0 ('Over the Horizon') 64bit
Writing library            : libebml v1.3.1 + libmatroska v1.4.2

Video
ID                          : 1
Format                      : AVC
Format/Info                : Advanced Video Codec
Format profile              : High@L4.1
Format settings, CABAC      : Yes
Format settings, ReFrames  : 5 frames
Codec ID                    : V_MPEG4/ISO/AVC
Duration                    : 2h 11mn
Bit rate                    : 17.9 Mbps
Width                      : 1 920 pixels
Height                      : 804 pixels
Display aspect ratio        : 2.40:1
Frame rate mode            : Constant
Frame rate                  : 23.976 (24000/1001) fps
Color space                : YUV
Chroma subsampling          : 4:2:0
Bit depth                  : 8 bits
Scan type                  : Progressive
Bits/(Pixel*Frame)          : 0.484
Stream size                : 16.4 GiB (91%)
Title                      : Mission.Impossible.Rogue.Nation.2015.1080p.BluRay.DTS.x264-HDMaNiAcs
Writing library            : x264 core 142 r2431+42 c69a006 tMod [8-bit@all X86_64]
Encoding settings          : cabac=1 / ref=5 / deblock=1:-3:-3 / analyse=0x3:0x113 / me=tesa / subme=11 / psy=1 / fade_compensate=0.00 / psy_rd=1.10:0.00 / mixed_ref=1 / me_range=32 / chroma_me=1 / trellis=2 / 8x8dct=1 / cqm=0 / deadzone=21,11 / fast_pskip=0 / chroma_qp_offset=-2 / threads=12 / lookahead_threads=2 / sliced_threads=0 / nr=0 / decimate=0 / interlaced=0 / bluray_compat=0 / constrained_intra=0 / fgo=0 / bframes=8 / b_pyramid=2 / b_adapt=2 / b_bias=0 / direct=3 / weightb=1 / open_gop=0 / weightp=2 / keyint=250 / keyint_min=23 / scenecut=40 / intra_refresh=0 / rc_lookahead=140 / rc=crf / mbtree=0 / crf=17.5000 / qcomp=0.65 / qpmin=0:0:0 / qpmax=69:69:69 / qpstep=4 / vbv_maxrate=40000 / vbv_bufsize=30000 / crf_max=0.0 / nal_hrd=none / filler=0 / ip_ratio=1.40 / pb_ratio=1.30 / aq=4:0.85 / aq-sensitivity=10.00 / aq-factor=1.00:1.00:1.00 / aq2=0 / aq3=0
Language                    : English
Default                    : Yes
Forced                      : No

Audio #1
ID                          : 2
Format                      : DTS
Format/Info                : Digital Theater Systems
Mode                        : 16
Format settings, Endianness : Big
Codec ID                    : A_DTS
Duration                    : 2h 11mn
Bit rate mode              : Constant
Bit rate                    : 1 509 Kbps
Channel(s)                  : 6 channels
Channel positions          : Front: L C R, Side: L R, LFE
Sampling rate              : 48.0 KHz
Frame rate                  : 93.750 fps (512 spf)
Bit depth                  : 24 bits
Compression mode            : Lossy
Stream size                : 1.39 GiB (8%)
Language                    : English
Default                    : Yes
Forced                      : No

Audio #2
ID                          : 3
Format                      : AC-3
Format/Info                : Audio Coding 3
Mode extension              : CM (complete main)
Format settings, Endianness : Big
Codec ID                    : A_AC3
Duration                    : 2h 11mn
Bit rate mode              : Constant
Bit rate                    : 224 Kbps
Channel(s)                  : 2 channels
Channel positions          : Front: L R
Sampling rate              : 48.0 KHz
Frame rate                  : 31.250 fps (1536 spf)
Compression mode            : Lossy
Stream size                : 211 MiB (1%)
Title                      : commentary
Language                    : English
Default                    : No
Forced                      : No

Text #1
ID                          : 4
Format                      : UTF-8
Codec ID                    : S_TEXT/UTF8
Codec ID/Info              : UTF-8 Plain Text
Duration                    : 2h 4mn
Bit rate                    : 47 bps
Count of elements          : 1233
Stream size                : 43.9 KiB (0%)
Language                    : English
Default                    : Yes
Forced                      : No

Text #2
ID                          : 5
Format                      : UTF-8
Codec ID                    : S_TEXT/UTF8
Codec ID/Info              : UTF-8 Plain Text
Duration                    : 2h 4mn
Bit rate                    : 81 bps
Count of elements          : 999
Stream size                : 74.0 KiB (0%)
Language                    : Greek
Default                    : No
Forced                      : No

Text #3
ID                          : 6
Format                      : PGS
Muxing mode                : zlib
Codec ID                    : S_HDMV/PGS
Codec ID/Info              : Picture based subtitle format used on BDs/HD-DVDs
Duration                    : 2h 3mn
Bit rate                    : 7 555 bps
Count of elements          : 2413
Stream size                : 6.67 MiB (0%)
Language                    : English
Default                    : No
Forced                      : No

Text #4
ID                          : 7
Format                      : PGS
Muxing mode                : zlib
Codec ID                    : S_HDMV/PGS
Codec ID/Info              : Picture based subtitle format used on BDs/HD-DVDs
Duration                    : 2h 3mn
Bit rate                    : 8 653 bps
Count of elements          : 2817
Stream size                : 7.64 MiB (0%)
Language                    : English
Default                    : No
Forced                      : No

Text #5
ID                          : 8
Format                      : PGS
Muxing mode                : zlib
Codec ID                    : S_HDMV/PGS
Codec ID/Info              : Picture based subtitle format used on BDs/HD-DVDs
Duration                    : 2h 4mn
Bit rate                    : 7 561 bps
Count of elements          : 2879
Stream size                : 6.72 MiB (0%)
Language                    : French
Default                    : No
Forced                      : No

Text #6
ID                          : 9
Format                      : PGS
Muxing mode                : zlib
Codec ID                    : S_HDMV/PGS
Codec ID/Info              : Picture based subtitle format used on BDs/HD-DVDs
Duration                    : 2h 4mn
Bit rate                    : 7 080 bps
Count of elements          : 2433
Stream size                : 6.30 MiB (0%)
Language                    : Spanish
Default                    : No
Forced                      : No

Text #7
ID                          : 10
Format                      : PGS
Muxing mode                : zlib
Codec ID                    : S_HDMV/PGS
Codec ID/Info              : Picture based subtitle format used on BDs/HD-DVDs
Duration                    : 2h 3mn
Bit rate                    : 6 583 bps
Count of elements          : 2421
Stream size                : 5.82 MiB (0%)
Language                    : Portuguese
Default                    : No
Forced                      : No

Menu
00:00:00.000                : en:00:00:00.000
00:09:53.092                : en:00:09:53.092
00:20:45.703                : en:00:20:45.703
00:25:32.072                : en:00:25:32.072
00:32:00.669                : en:00:32:00.669
00:40:03.443                : en:00:40:03.443
00:49:35.556                : en:00:49:35.556
01:01:01.157                : en:01:01:01.157
01:09:51.687                : en:01:09:51.687
01:20:20.858                : en:01:20:20.858
01:29:29.322                : en:01:29:29.322
01:38:32.824                : en:01:38:32.824
01:48:19.410                : en:01:48:19.410
01:57:13.944                : en:01:57:13.944
02:03:02.709                : en:02:03:02.709

kód:

http://www.fastshare.cz/6074024/hdb08015102nrim.part01.rar
http://www.fastshare.cz/6074031/hdb08015102nrim.part02.rar
http://www.fastshare.cz/6074044/hdb08015102nrim.part03.rar
http://www.fastshare.cz/6074052/hdb08015102nrim.part04.rar
http://www.fastshare.cz/6074059/hdb08015102nrim.part05.rar
http://www.fastshare.cz/6074069/hdb08015102nrim.part06.rar
http://www.fastshare.cz/6074079/hdb08015102nrim.part07.rar
http://www.fastshare.cz/6074085/hdb08015102nrim.part08.rar
http://www.fastshare.cz/6074095/hdb08015102nrim.part09.rar
http://www.fastshare.cz/6074098/hdb08015102nrim.part10.rar

kód:

http://file-share.top/file/211646/hdb08015102nrim-part01-rar
http://file-share.top/file/211651/hdb08015102nrim-part02-rar
http://file-share.top/file/211652/hdb08015102nrim-part03-rar
http://file-share.top/file/211653/hdb08015102nrim-part04-rar
http://file-share.top/file/211655/hdb08015102nrim-part05-rar
http://file-share.top/file/211658/hdb08015102nrim-part06-rar
http://file-share.top/file/211666/hdb08015102nrim-part07-rar
http://file-share.top/file/211668/hdb08015102nrim-part08-rar
http://file-share.top/file/211671/hdb08015102nrim-part09-rar
http://file-share.top/file/211672/hdb08015102nrim-part10-rar


Upload 3% na opravu dat

no pass
Návrat hore Goto down
Zobrazit informácie o autorovi
 
Mission: Impossible - Rogue Nation/Mission Impossible(2015)
Zobraziť predchádzajúcu tému Zobraziť nasledujúcu tému Návrat hore 
Strana 1 z 1

Povolenie tohoto fóra:Nemôžete odpovedať na témy v tomto fóre.
Warforum :: Sťahuj :: FILMY-
Prejdi na: