Warforum

stahuj.forumonline.biz
 
DomovFAQHľadaťRegistráciaZoznam užívateľovUžívateľské skupinyPrihlásenie

Share | 
 

 No Escape (2015)

Zobraziť predchádzajúcu tému Zobraziť nasledujúcu tému Goto down 
AutorSpráva
Jack86



Počet príspevkov : 110
Registration date : 10.02.2010

OdoslaťPredmet: No Escape (2015)   St jún 08, 2016 10:59 pm




kód:

http://www.csfd.cz/film/316912-no-escape/prehled/
http://www.imdb.com/title/tt1781922/combined


[size=140]No.Escape.2015.BluRay.1080p.DTS-HD.MA.5.1.x264.dxva-FraMeSToR + titulky[/size]


Audio: EN
Titulky: CZ


kód:
No.Escape.2015.BluRay.1080p.DTS-HD.MA.5.1.x264.dxva-FraMeSToR
Format                      : Matroska
Format version              : Version 4 / Version 2
File size                  : 11.2 GiB
Duration                    : 1h 43mn
Overall bit rate            : 15.6 Mbps
Encoded date                : UTC 2015-11-04 01:41:28
Writing application        : mkvmerge v8.5.1 ('Where you lead I will follow') 64bit
Writing library            : libebml v1.3.3 + libmatroska v1.4.4

Video
ID                          : 1
Format                      : AVC
Format/Info                : Advanced Video Codec
Format profile              : High@L4.1
Format settings, CABAC      : Yes
Format settings, ReFrames  : 4 frames
Codec ID                    : V_MPEG4/ISO/AVC
Duration                    : 1h 43mn
Bit rate                    : 11.9 Mbps
Width                      : 1 920 pixels
Height                      : 1 040 pixels
Display aspect ratio        : 1.85:1
Frame rate mode            : Constant
Frame rate                  : 23.976 (24000/1001) fps
Color space                : YUV
Chroma subsampling          : 4:2:0
Bit depth                  : 8 bits
Scan type                  : Progressive
Bits/(Pixel*Frame)          : 0.249
Stream size                : 8.57 GiB (76%)
Title                      : FraMeSToR / MPEG-4 AVC Video / 11904 kbps / 23.976 fps / High@L4.1
Writing library            : x264 core 148 r2638 7599210
Encoding settings          : cabac=1 / ref=4 / deblock=1:-1:-1 / analyse=0x3:0x113 / me=umh / subme=10 / psy=1 / psy_rd=1.00:0.15 / mixed_ref=1 / me_range=48 / chroma_me=1 / trellis=2 / 8x8dct=1 / cqm=0 / deadzone=21,11 / fast_pskip=0 / chroma_qp_offset=-3 / threads=12 / lookahead_threads=1 / sliced_threads=0 / nr=0 / decimate=1 / interlaced=0 / bluray_compat=0 / constrained_intra=0 / bframes=6 / b_pyramid=2 / b_adapt=2 / b_bias=0 / direct=3 / weightb=1 / open_gop=0 / weightp=2 / keyint=250 / keyint_min=23 / scenecut=40 / intra_refresh=0 / rc_lookahead=120 / rc=crf / mbtree=1 / crf=17.3 / qcomp=0.60 / qpmin=0 / qpmax=69 / qpstep=4 / vbv_maxrate=30000 / vbv_bufsize=38000 / crf_max=0.0 / nal_hrd=none / filler=0 / ip_ratio=1.40 / aq=3:0.90
Default                    : Yes
Forced                      : No
Color range                : Limited
Color primaries            : BT.709
Transfer characteristics    : BT.709
Matrix coefficients        : BT.709

Audio
ID                          : 2
Format                      : DTS
Format/Info                : Digital Theater Systems
Format profile              : MA / Core
Mode                        : 16
Format settings, Endianness : Big
Codec ID                    : A_DTS
Duration                    : 1h 43mn
Bit rate mode              : Variable / Constant
Bit rate                    : 3 683 Kbps / 1 509 Kbps
Channel(s)                  : 6 channels
Channel positions          : Front: L C R, Side: L R, LFE
Sampling rate              : 48.0 KHz
Frame rate                  : 93.750 fps (512 spf)
Bit depth                  : 24 bits
Compression mode            : Lossless / Lossy
Stream size                : 2.65 GiB (24%)
Title                      : FraMeSToR / DTS-HD MA / 5.1 / 48 kHz / 3683 kbps / 24-bit
Language                    : English
Default                    : Yes
Forced                      : No

Text #1
ID                          : 3
Format                      : PGS
Muxing mode                : zlib
Codec ID                    : S_HDMV/PGS
Codec ID/Info              : Picture based subtitle format used on BDs/HD-DVDs
Duration                    : 1h 36mn
Bit rate                    : 10.7 Kbps
Count of elements          : 2438
Stream size                : 7.40 MiB (0%)
Title                      : SDH
Language                    : English
Default                    : No
Forced                      : No

Text #2
ID                          : 4
Format                      : PGS
Muxing mode                : zlib
Codec ID                    : S_HDMV/PGS
Codec ID/Info              : Picture based subtitle format used on BDs/HD-DVDs
Duration                    : 1h 35mn
Bit rate                    : 8 721 bps
Count of elements          : 2126
Stream size                : 5.95 MiB (0%)
Language                    : Spanish
Default                    : No
Forced                      : No

Menu
00:00:00.000                : en:00:00:00.000
00:04:10.041                : en:00:04:10.041
00:10:57.866                : en:00:10:57.866
00:18:40.703                : en:00:18:40.703
00:25:31.447                : en:00:25:31.447
00:34:40.787                : en:00:34:40.787
00:40:04.360                : en:00:40:04.360
00:46:11.310                : en:00:46:11.310
00:52:06.498                : en:00:52:06.498
00:57:36.828                : en:00:57:36.828
01:03:55.790                : en:01:03:55.790
01:11:22.487                : en:01:11:22.487
01:18:58.651                : en:01:18:58.651
01:25:01.471                : en:01:25:01.471
01:31:11.383                : en:01:31:11.383
01:37:38.978                : en:01:37:38.978

kód:

http://www.fastshare.cz/6060401/fd08b51en.part1.rar
http://www.fastshare.cz/6060405/fd08b51en.part2.rar
http://www.fastshare.cz/6060408/fd08b51en.part3.rar
http://www.fastshare.cz/6060411/fd08b51en.part4.rar
http://www.fastshare.cz/6060419/fd08b51en.part5.rar
http://www.fastshare.cz/6060421/fd08b51en.part6.rar

kód:

http://file-share.top/file/210531/fd08b51en-part1-rar
http://file-share.top/file/210533/fd08b51en-part2-rar
http://file-share.top/file/210534/fd08b51en-part3-rar
http://file-share.top/file/210535/fd08b51en-part4-rar
http://file-share.top/file/210539/fd08b51en-part5-rar
http://file-share.top/file/210545/fd08b51en-part6-rar


Upload 3% na opravu dat

no pass
Návrat hore Goto down
Zobrazit informácie o autorovi
 
No Escape (2015)
Zobraziť predchádzajúcu tému Zobraziť nasledujúcu tému Návrat hore 
Strana 1 z 1

Povolenie tohoto fóra:Nemôžete odpovedať na témy v tomto fóre.
Warforum :: Sťahuj :: FILMY-
Prejdi na: