Warforum

stahuj.forumonline.biz
 
DomovFAQHľadaťRegistráciaZoznam užívateľovUžívateľské skupinyPrihlásenie

Share | 
 

 The Do Over (2016)

Zobraziť predchádzajúcu tému Zobraziť nasledujúcu tému Goto down 
AutorSpráva
Jack86



Počet príspevkov : 110
Registration date : 10.02.2010

OdoslaťPredmet: The Do Over (2016)   Po jún 06, 2016 5:32 am




kód:

http://www.csfd.cz/film/59809-the-do-over/prehled/
http://www.imdb.com/title/tt4769836/combined


[size=140]The.Do.Over.2016.1080p.NF.WEBRip.DD5.1.x264-PiA + titulky[/size]


Audio: EN
Titulky: CZ


kód:
The.Do.Over.2016.1080p.NF.WEBRip.DD5.1.x264-PiA
Format                      : Matroska
Format version              : Version 4 / Version 2
File size                  : 7.81 GiB
Duration                    : 1h 47mn
Overall bit rate            : 10.4 Mbps
Movie name                  : The.Do.Over.2016.1080p.NF.WEBRip.DD5.1.x264-PiA
Encoded date                : UTC 2016-05-28 03:58:22
Writing application        : mkvmerge v9.1.0 ('Little Earthquakes') 64bit
Writing library            : libebml v1.3.3 + libmatroska v1.4.4
Cover                      : Yes
Attachments                : small_cover.jpg / small_cover_land.jpg / cover.jpg / cover_land.jpg

Video
ID                          : 1
Format                      : AVC
Format/Info                : Advanced Video Codec
Format profile              : High@L4.1
Format settings, CABAC      : Yes
Format settings, ReFrames  : 4 frames
Codec ID                    : V_MPEG4/ISO/AVC
Duration                    : 1h 47mn
Bit rate                    : 9 537 Kbps
Width                      : 1 920 pixels
Height                      : 1 036 pixels
Display aspect ratio        : 1.85:1
Frame rate mode            : Constant
Frame rate                  : 23.976 (24000/1001) fps
Color space                : YUV
Chroma subsampling          : 4:2:0
Bit depth                  : 8 bits
Scan type                  : Progressive
Bits/(Pixel*Frame)          : 0.200
Stream size                : 7.18 GiB (92%)
Writing library            : x264 core 148 r2692 64f4e24
Encoding settings          : cabac=1 / ref=4 / deblock=1:-3:-3 / analyse=0x3:0x133 / me=umh / subme=10 / psy=1 / psy_rd=1.00:0.15 / mixed_ref=1 / me_range=32 / chroma_me=1 / trellis=2 / 8x8dct=1 / cqm=0 / deadzone=21,11 / fast_pskip=1 / chroma_qp_offset=-3 / threads=12 / lookahead_threads=2 / sliced_threads=0 / nr=0 / decimate=1 / interlaced=0 / bluray_compat=0 / constrained_intra=0 / bframes=8 / b_pyramid=2 / b_adapt=2 / b_bias=0 / direct=3 / weightb=1 / open_gop=0 / weightp=2 / keyint=240 / keyint_min=23 / scenecut=40 / intra_refresh=0 / rc_lookahead=60 / rc=crf / mbtree=1 / crf=17.0 / qcomp=0.70 / qpmin=0 / qpmax=69 / qpstep=4 / ip_ratio=1.40 / aq=3:0.80
Language                    : English
Default                    : Yes
Forced                      : No
Color range                : Limited
Color primaries            : BT.709
Transfer characteristics    : BT.709
Matrix coefficients        : BT.709

Audio
ID                          : 2
Format                      : AC-3
Format/Info                : Audio Coding 3
Mode extension              : CM (complete main)
Format settings, Endianness : Big
Codec ID                    : A_AC3
Duration                    : 1h 47mn
Bit rate mode              : Constant
Bit rate                    : 640 Kbps
Channel(s)                  : 6 channels
Channel positions          : Front: L C R, Side: L R, LFE
Sampling rate              : 48.0 KHz
Frame rate                  : 31.250 fps (1536 spf)
Compression mode            : Lossy
Stream size                : 493 MiB (6%)
Language                    : English
Default                    : Yes
Forced                      : No

Text #1
ID                          : 3
Format                      : UTF-8
Codec ID                    : S_TEXT/UTF8
Codec ID/Info              : UTF-8 Plain Text
Language                    : English
Default                    : Yes
Forced                      : No

Text #2
ID                          : 4
Format                      : UTF-8
Codec ID                    : S_TEXT/UTF8
Codec ID/Info              : UTF-8 Plain Text
Language                    : Italian
Default                    : No
Forced                      : No

Text #3
ID                          : 5
Format                      : UTF-8
Codec ID                    : S_TEXT/UTF8
Codec ID/Info              : UTF-8 Plain Text
Language                    : German
Default                    : No
Forced                      : No

Text #4
ID                          : 6
Format                      : UTF-8
Codec ID                    : S_TEXT/UTF8
Codec ID/Info              : UTF-8 Plain Text
Language                    : Portuguese
Default                    : No
Forced                      : No

kód:

http://www.fastshare.cz/6053138/pwn08016102odt.part1.rar
http://www.fastshare.cz/6053145/pwn08016102odt.part2.rar
http://www.fastshare.cz/6053151/pwn08016102odt.part3.rar
http://www.fastshare.cz/6053155/pwn08016102odt.part4.rar
http://www.fastshare.cz/6053156/pwn08016102odt.part5.rar

kód:

http://file-share.top/file/208648/pwn08016102odt-part1-rar
http://file-share.top/file/208649/pwn08016102odt-part2-rar
http://file-share.top/file/208652/pwn08016102odt-part3-rar
http://file-share.top/file/208655/pwn08016102odt-part4-rar
http://file-share.top/file/208656/pwn08016102odt-part5-rar

[size=140]The.Do.Over.2016.NF.WEBRip.DD5.1.720p.x264-PiA + titulky[/size]


Audio: EN
Titulky: CZ


kód:
The.Do.Over.2016.NF.WEBRip.DD5.1.720p.x264-PiA
Format                      : Matroska
Format version              : Version 2
File size                  : 3.48 GiB
Duration                    : 1h 47mn
Overall bit rate            : 4 620 Kbps
Encoded date                : UTC 2016-05-27 13:24:25
Writing application        : mkvmerge v5.1.0 ('And so it goes') built on Feb  1 2012 11:32:58
Writing library            : libebml v1.2.2 + libmatroska v1.3.0

Video
ID                          : 1
Format                      : AVC
Format/Info                : Advanced Video Codec
Format profile              : High@L4.1
Format settings, CABAC      : Yes
Format settings, ReFrames  : 8 frames
Muxing mode                : Header stripping
Codec ID                    : V_MPEG4/ISO/AVC
Duration                    : 1h 47mn
Bit rate                    : 3 888 Kbps
Width                      : 1 280 pixels
Height                      : 692 pixels
Display aspect ratio        : 1.85:1
Frame rate mode            : Constant
Frame rate                  : 23.976 (24000/1001) fps
Color space                : YUV
Chroma subsampling          : 4:2:0
Bit depth                  : 8 bits
Scan type                  : Progressive
Bits/(Pixel*Frame)          : 0.183
Stream size                : 2.93 GiB (84%)
Writing library            : x264 core 148 r2692 64f4e24
Encoding settings          : cabac=1 / ref=8 / deblock=1:-2:-2 / analyse=0x3:0x133 / me=umh / subme=9 / psy=1 / psy_rd=1.00:0.15 / mixed_ref=1 / me_range=16 / chroma_me=1 / trellis=2 / 8x8dct=1 / cqm=0 / deadzone=21,11 / fast_pskip=1 / chroma_qp_offset=-3 / threads=12 / lookahead_threads=1 / sliced_threads=0 / nr=0 / decimate=1 / interlaced=0 / bluray_compat=0 / constrained_intra=0 / bframes=4 / b_pyramid=2 / b_adapt=2 / b_bias=0 / direct=3 / weightb=1 / open_gop=0 / weightp=2 / keyint=240 / keyint_min=23 / scenecut=40 / intra_refresh=0 / rc_lookahead=60 / rc=crf / mbtree=1 / crf=18.0 / qcomp=0.70 / qpmin=0 / qpmax=69 / qpstep=4 / ip_ratio=1.40 / aq=3:0.80
Language                    : English
Default                    : Yes
Forced                      : No
Color range                : Limited
Color primaries            : BT.709
Transfer characteristics    : BT.709
Matrix coefficients        : BT.709
Statistics Tags Issue      : mkvmerge v8.3.0 ('Over the Horizon') 64bit 2016-05-27 11:35:17 / mkvmerge v5.1.0 ('And so it goes') built on Feb  1 2012 11:32:58 2016-05-27 13:24:25
FromStats_BitRate          : 3978718
FromStats_Duration          : 01:47:44.375000000
FromStats_FrameCount        : 154990
FromStats_StreamSize        : 3214991325

Audio
ID                          : 6
Format                      : AC-3
Format/Info                : Audio Coding 3
Mode extension              : CM (complete main)
Format settings, Endianness : Big
Muxing mode                : Header stripping
Codec ID                    : A_AC3
Duration                    : 1h 47mn
Bit rate mode              : Constant
Bit rate                    : 640 Kbps
Channel(s)                  : 6 channels
Channel positions          : Front: L C R, Side: L R, LFE
Sampling rate              : 48.0 KHz
Frame rate                  : 31.250 fps (1536 spf)
Compression mode            : Lossy
Stream size                : 493 MiB (14%)
Language                    : English
Default                    : Yes
Forced                      : Yes

Text #1
ID                          : 2
Format                      : UTF-8
Codec ID                    : S_TEXT/UTF8
Codec ID/Info              : UTF-8 Plain Text
Language                    : English
Default                    : No
Forced                      : No

Text #2
ID                          : 3
Format                      : UTF-8
Codec ID                    : S_TEXT/UTF8
Codec ID/Info              : UTF-8 Plain Text
Language                    : Italian
Default                    : No
Forced                      : No

Text #3
ID                          : 4
Format                      : UTF-8
Codec ID                    : S_TEXT/UTF8
Codec ID/Info              : UTF-8 Plain Text
Language                    : German
Default                    : No
Forced                      : No

Text #4
ID                          : 5
Format                      : UTF-8
Codec ID                    : S_TEXT/UTF8
Codec ID/Info              : UTF-8 Plain Text
Language                    : Portuguese
Default                    : No
Forced                      : No

kód:

http://www.fastshare.cz/6053194/027wn61odt.part1.rar
http://www.fastshare.cz/6053201/027wn61odt.part2.rar

kód:

http://file-share.top/file/208663/027wn61odt-part1-rar
http://file-share.top/file/208665/027wn61odt-part2-rar

kód:

http://www.fastshare.cz/6053253/the.do.over.2016.nf.webrip.dd5.1.720p.x264-pia.mkv
http://www.fastshare.cz/6053254/the.do.over.2016.nf.webrip.dd5.1.720p.x264-pia.srt

kód:

http://file-share.top/file/208685/the-do-over-2016-nf-webrip-dd5-1-720p-x264-pia-mkv
http://file-share.top/file/208686/the-do-over-2016-nf-webrip-dd5-1-720p-x264-pia-srt

Upload 3% na opravu dat

no pass
Návrat hore Goto down
Zobrazit informácie o autorovi
 
The Do Over (2016)
Zobraziť predchádzajúcu tému Zobraziť nasledujúcu tému Návrat hore 
Strana 1 z 1

Povolenie tohoto fóra:Nemôžete odpovedať na témy v tomto fóre.
Warforum :: Sťahuj :: FILMY-
Prejdi na: