Warforum

stahuj.forumonline.biz
 
DomovFAQHľadaťRegistráciaZoznam užívateľovUžívateľské skupinyPrihlásenie

Share | 
 

 X-Men: Apocalypse / X-Men: Apokalypsa (2016)

Zobraziť predchádzajúcu tému Zobraziť nasledujúcu tému Goto down 
AutorSpráva
Jack86



Počet príspevkov : 110
Registration date : 10.02.2010

OdoslaťPredmet: X-Men: Apocalypse / X-Men: Apokalypsa (2016)   Ne jún 05, 2016 11:45 pm




kód:

http://www.csfd.cz/film/358916-x-men-apokalypsa/prehled/
http://www.imdb.com/title/tt3385516/combined


[size=140]X.Men.Apocalypse.2016.1080p.HDTC.KORSUB.x264.ShAaNiG + titulky[/size]


Audio: EN
Titulky: CZ


kód:
X.Men.Apocalypse.2016.1080p.HDTC.KORSUB.x264.ShAaNiG
Format                      : Matroska
Format version              : Version 2
File size                  : 2.50 GiB
Duration                    : 2h 23mn
Overall bit rate            : 2 483 Kbps
Encoded date                : UTC 2016-06-04 15:29:26
Writing application        : mkvmerge v7.8.0 ('River Man') 32bit built on Mar 27 2015 16:18:02
Writing library            : libebml v1.3.1 + libmatroska v1.4.2

Video
ID                          : 1
Format                      : AVC
Format/Info                : Advanced Video Codec
Format profile              : High@L4
Format settings, CABAC      : Yes
Format settings, ReFrames  : 5 frames
Codec ID                    : V_MPEG4/ISO/AVC
Duration                    : 2h 23mn
Bit rate                    : 2 416 Kbps
Width                      : 1 920 pixels
Height                      : 792 pixels
Display aspect ratio        : 2.40:1
Frame rate mode            : Constant
Frame rate                  : 29.970 (30000/1001) fps
Color space                : YUV
Chroma subsampling          : 4:2:0
Bit depth                  : 8 bits
Scan type                  : Progressive
Bits/(Pixel*Frame)          : 0.053
Stream size                : 2.43 GiB (97%)
Writing library            : x264 core 133 r2334 a3ac64b
Encoding settings          : cabac=1 / ref=5 / deblock=1:-1:-1 / analyse=0x3:0x113 / me=umh / subme=7 / psy=1 / psy_rd=1.00:0.00 / mixed_ref=1 / me_range=16 / chroma_me=1 / trellis=2 / 8x8dct=1 / cqm=0 / deadzone=21,11 / fast_pskip=1 / chroma_qp_offset=-2 / threads=48 / lookahead_threads=6 / sliced_threads=0 / nr=0 / decimate=1 / interlaced=0 / bluray_compat=0 / constrained_intra=0 / bframes=3 / b_pyramid=0 / b_adapt=1 / b_bias=0 / direct=3 / weightb=1 / open_gop=0 / weightp=2 / keyint=300 / keyint_min=29 / scenecut=40 / intra_refresh=0 / rc_lookahead=40 / rc=2pass / mbtree=1 / bitrate=2416 / ratetol=1.0 / qcomp=0.60 / qpmin=10 / qpmax=51 / qpstep=4 / cplxblur=20.0 / qblur=0.5 / vbv_maxrate=20000 / vbv_bufsize=25000 / nal_hrd=none / ip_ratio=1.40 / aq=1:1.00
Default                    : Yes
Forced                      : No

Audio
ID                          : 2
Format                      : AAC
Format/Info                : Advanced Audio Codec
Format profile              : HE-AAC / LC
Codec ID                    : A_AAC
Duration                    : 2h 23mn
Bit rate                    : 64.0 Kbps
Channel(s)                  : 2 channels
Channel positions          : Front: L R
Sampling rate              : 48.0 KHz / 24.0 KHz
Frame rate                  : 23.438 fps (1024 spf)
Compression mode            : Lossy
Delay relative to video    : 31ms
Stream size                : 65.9 MiB (3%)
Language                    : English
Default                    : Yes
Forced                      : No

kód:

http://www.fastshare.cz/6053285/x.men.apocalypse.2016.1080p.hdtc.korsub.x264.shaanig.mkv
http://www.fastshare.cz/6053286/x.men.apocalypse.2016.1080p.hdtc.korsub.x264.shaanig.srt

kód:

http://file-share.top/file/208691/x-men-apocalypse-2016-1080p-hdtc-korsub-x264-shaanig-mkv
http://file-share.top/file/208692/x-men-apocalypse-2016-1080p-hdtc-korsub-x264-shaanig-srt

kód:

http://www.fastshare.cz/6053220/sskh0861amx.part1.rar
http://www.fastshare.cz/6053221/sskh0861amx.part2.rar

kód:

http://file-share.top/file/208670/sskh0861amx-part1-rar
http://file-share.top/file/208673/sskh0861amx-part2-rar


Upload 3% na opravu dat

no pass
Návrat hore Goto down
Zobrazit informácie o autorovi
Jack86



Počet príspevkov : 110
Registration date : 10.02.2010

OdoslaťPredmet: Re: X-Men: Apocalypse / X-Men: Apokalypsa (2016)   Ut júl 19, 2016 5:54 pm




kód:

http://www.csfd.cz/film/358916-x-men-apokalypsa/prehled/
http://www.imdb.com/title/tt3385516/combined


[size=140]X-Men.Apocalypse.2016.720p.HDRip.KORSUB.x264.AAC2.0-STUTTERSHIT + titulky[/size]


Audio: EN
Titulky: CZ


kód:
X-Men.Apocalypse.2016.720p.HDRip.KORSUB.x264.AAC2.0-STUTTERSHIT
Format                      : Matroska
Format version              : Version 4 / Version 2
File size                   : 2.99 GiB
Duration                    : 2h 23mn
Overall bit rate            : 2 983 Kbps
Movie name                  : X-Men.Apocalypse.2016.720p.HDRip.KORSUB.x264.AAC2.0-STUTTERSHIT
Encoded date                : UTC 2016-07-19 03:36:26
Writing application         : mkvmerge v9.3.1 ('Mask Machine') 64bit
Writing library             : libebml v1.3.4 + libmatroska v1.4.5
Cover                       : Yes
Attachments                 : small_cover.jpg / small_cover_land.jpg / cover.jpg / cover_land.jpg

Video
ID                          : 1
Format                      : AVC
Format/Info                 : Advanced Video Codec
Format profile              : Baseline@L3.1
Format settings, CABAC      : No
Format settings, ReFrames   : 1 frame
Codec ID                    : V_MPEG4/ISO/AVC
Duration                    : 2h 23mn
Width                       : 1 280 pixels
Height                      : 720 pixels
Display aspect ratio        : 16:9
Frame rate mode             : Constant
Frame rate                  : 29.970 (29970/1000) fps
Color space                 : YUV
Chroma subsampling          : 4:2:0
Bit depth                   : 8 bits
Scan type                   : Progressive
Title                       : X-Men.Apocalypse.2016.720p.HDRip.KORSUB.x264.AAC2.0-STUTTERSHIT
Language                    : English
Default                     : Yes
Forced                      : No

Audio
ID                          : 2
Format                      : AAC
Format/Info                 : Advanced Audio Codec
Format profile              : LC
Codec ID                    : A_AAC
Duration                    : 2h 23mn
Channel(s)                  : 2 channels
Channel positions           : Front: L R
Sampling rate               : 44.1 KHz
Frame rate                  : 43.066 fps (1024 spf)
Compression mode            : Lossy
Title                       : X-Men.Apocalypse.2016.720p.HDRip.KORSUB.x264.AAC2.0-STUTTERSHIT
Language                    : English
Default                     : Yes
Forced                      : No

kód:

http://www.fastshare.cz/6244984/x-men.apocalypse.2016.720p.hdrip.korsub.x264.aac2.0-stuttershit.mkv
http://www.fastshare.cz/6244985/x-men.apocalypse.2016.720p.hdrip.korsub.x264.aac2.0-stuttershit.srt

kód:

https://sdilej.cz/7900981/X-Men.Apocalypse.2016.720p.HDRip.KORSUB.x264.AAC2.0-STUTTERSHIT.mkv
https://sdilej.cz/7900983/X-Men.Apocalypse.2016.720p.HDRip.KORSUB.x264.AAC2.0-STUTTERSHIT.srt

kód:

http://www.fastshare.cz/6245010/sbsrkrh0261elanmx.rar

kód:

https://sdilej.cz/7901017/SBSRKRH0261elAnMX.rar

kód:

http://www.fastshare.cz/6245024/sbsrkrh0261elanmx.part1.rar
http://www.fastshare.cz/6245025/sbsrkrh0261elanmx.part2.rar

kód:

https://sdilej.cz/7901026/SBSRKRH0261elAnMX.part1.rar
https://sdilej.cz/7901027/SBSRKRH0261elAnMX.part2.rar


Upload 3% na opravu dat

no pass
Návrat hore Goto down
Zobrazit informácie o autorovi
 
X-Men: Apocalypse / X-Men: Apokalypsa (2016)
Zobraziť predchádzajúcu tému Zobraziť nasledujúcu tému Návrat hore 
Strana 1 z 1

Povolenie tohoto fóra:Nemôžete odpovedať na témy v tomto fóre.
Warforum :: Sťahuj :: FILMY-
Prejdi na: