Warforum

stahuj.forumonline.biz
 
DomovFAQHľadaťRegistráciaZoznam užívateľovUžívateľské skupinyPrihlásenie

Share | 
 

 The Jungle Book / Kniha džunglí (2016)

Zobraziť predchádzajúcu tému Zobraziť nasledujúcu tému Goto down 
AutorSpráva
Jack86



Počet príspevkov : 110
Registration date : 10.02.2010

OdoslaťPredmet: The Jungle Book / Kniha džunglí (2016)   Št jún 02, 2016 4:46 pm




kód:

http://www.csfd.cz/film/369825-kniha-dzungli/prehled/
http://www.imdb.com/title/tt3040964/combined


[size=140]The.Jungle.Book.2016.1080p.TC.X264.Masteredition.Hive-CM8 + titulky[/size]

kód:
The.Jungle.Book.2016.1080p.TC.X264.Masteredition.Hive-CM8
Format                      : Matroska
Format version              : Version 2
File size                  : 3.86 GiB
Duration                    : 1h 45mn
Overall bit rate mode      : Variable
Overall bit rate            : 5 221 Kbps
Encoded date                : UTC 2016-05-12 19:50:49
Writing application        : mkvmerge v5.6.0 ('Kenya Kane') built on May 27 2012 16:44:04
Writing library            : libebml v1.2.3 + libmatroska v1.3.0

Video
ID                          : 1
Format                      : AVC
Format/Info                : Advanced Video Codec
Format profile              : High@L5.1
Format settings, CABAC      : Yes
Format settings, ReFrames  : 4 frames
Format settings, GOP        : M=4, N=33
Muxing mode                : Header stripping
Codec ID                    : V_MPEG4/ISO/AVC
Duration                    : 1h 45mn
Bit rate mode              : Variable
Bit rate                    : 4 861 Kbps
Maximum bit rate            : 8 000 Kbps
Width                      : 1 920 pixels
Height                      : 1 028 pixels
Display aspect ratio        : 1.85:1
Frame rate mode            : Constant
Frame rate                  : 23.976 (24000/1001) fps
Standard                    : NTSC
Color space                : YUV
Chroma subsampling          : 4:2:0
Bit depth                  : 8 bits
Scan type                  : Progressive
Bits/(Pixel*Frame)          : 0.103
Stream size                : 3.60 GiB (93%)
Language                    : English
Default                    : Yes
Forced                      : No
Color range                : Limited
Color primaries            : BT.709
Transfer characteristics    : BT.709
Matrix coefficients        : BT.709

Audio
ID                          : 2
Format                      : AC-3
Format/Info                : Audio Coding 3
Mode extension              : CM (complete main)
Format settings, Endianness : Big
Muxing mode                : Header stripping
Codec ID                    : A_AC3
Duration                    : 1h 45mn
Bit rate mode              : Constant
Bit rate                    : 256 Kbps
Channel(s)                  : 2 channels
Channel positions          : Front: L R
Sampling rate              : 48.0 KHz
Frame rate                  : 31.250 fps (1536 spf)
Compression mode            : Lossy
Stream size                : 194 MiB (5%)
Language                    : English
Default                    : Yes
Forced                      : No

kód:

http://www.fastshare.cz/6043228/the.jungle.book.2016.1080p.tc.x264.masteredition.hive-cm8.mkv
http://www.fastshare.cz/6043229/the.jungle.book.2016.1080p.tc.x264.masteredition.hive-cm8.srt

kód:

http://file-share.top/file/207178/the-jungle-book-2016-1080p-tc-x264-masteredition-hive-cm8-mkv
http://file-share.top/file/207179/the-jungle-book-2016-1080p-tc-x264-masteredition-hive-cm8-srt

kód:

http://sdilej.cz/7828664/cAxo/The.Jungle.Book.2016.1080p.TC.X264.Masteredition.Hive_CM8.mkv
https://sdilej.cz/7828667/The.Jungle.Book.2016.1080p.TC.X264.Masteredition.Hive-CM8.srt


kód:

http://www.fastshare.cz/6042827/hmct0861bjt.part1.rar
http://www.fastshare.cz/6042846/hmct0861bjt.part2.rar

kód:

http://file-share.top/file/206896/hmct0861bjt-part1-rar
http://file-share.top/file/206899/hmct0861bjt-part2-rar

kód:

http://sdilej.cz/7828564/Tu5B/HMCT0861BJT.part1.rar
http://sdilej.cz/7828569/CqBN/HMCT0861BJT.part2.rar


Upload 3% na opravu dat

no pass
Návrat hore Goto down
Zobrazit informácie o autorovi
 
The Jungle Book / Kniha džunglí (2016)
Zobraziť predchádzajúcu tému Zobraziť nasledujúcu tému Návrat hore 
Strana 1 z 1

Povolenie tohoto fóra:Nemôžete odpovedať na témy v tomto fóre.
Warforum :: Sťahuj :: FILMY-
Prejdi na: