Warforum

stahuj.forumonline.biz
 
DomovFAQHľadaťRegistráciaZoznam užívateľovUžívateľské skupinyPrihlásenie

Share | 
 

 13 Hours: The Secret Soldiers of Benghazi /13 hodin:..(2016)

Zobraziť predchádzajúcu tému Zobraziť nasledujúcu tému Goto down 
AutorSpráva
Jack86



Počet príspevkov : 110
Registration date : 10.02.2010

OdoslaťPredmet: 13 Hours: The Secret Soldiers of Benghazi /13 hodin:..(2016)   Po máj 30, 2016 12:42 pm




kód:

http://www.csfd.cz/film/51848-13-hodin-tajni-vojaci-z-benghazi/prehled/
http://www.imdb.com/title/tt4172430/combined


[size=140]13.Hours.The.Secret.Soldiers.of.Benghazi.2016.1080p.BluRay.REMUX.AVC.TrueHD.7.1.Atmos-RARBG + titulky[/size]

kód:
13.Hours.The.Secret.Soldiers.of.Benghazi.2016.1080p.BluRay.REMUX.AVC.TrueHD.7.1.Atmos-RARBG
Format                      : Matroska
Format version              : Version 4 / Version 2
File size                  : 35.7 GiB
Duration                    : 2h 24mn
Overall bit rate mode      : Variable
Overall bit rate            : 35.4 Mbps
Movie name                  : 13.Hours.The.Secret.Soldiers.of.Benghazi.2016.1080p.BluRay.REMUX.AVC.TrueHD.7.1.Atmos-RARBG
Encoded date                : UTC 2016-05-25 20:58:01
Writing application        : mkvmerge v9.1.0 ('Little Earthquakes') 64bit
Writing library            : libebml v1.3.3 + libmatroska v1.4.4
Cover                      : Yes
Attachments                : small_cover.jpg / small_cover_land.jpg / cover.jpg / cover_land.jpg

Video
ID                          : 1
Format                      : AVC
Format/Info                : Advanced Video Codec
Format profile              : High@L4.1
Format settings, CABAC      : Yes
Format settings, ReFrames  : 4 frames
Codec ID                    : V_MPEG4/ISO/AVC
Duration                    : 2h 24mn
Bit rate mode              : Variable
Maximum bit rate            : 29.0 Mbps
Width                      : 1 920 pixels
Height                      : 1 080 pixels
Display aspect ratio        : 16:9
Frame rate mode            : Constant
Frame rate                  : 23.976 (24000/1001) fps
Color space                : YUV
Chroma subsampling          : 4:2:0
Bit depth                  : 8 bits
Scan type                  : Progressive
Title                      : 13.Hours.The.Secret.Soldiers.of.Benghazi.2016.1080p.BluRay.REMUX.AVC.TrueHD.7.1.Atmos-RARBG
Language                    : English
Default                    : No
Forced                      : No

Audio #1
ID                          : 2
Format                      : Atmos / TrueHD
Codec ID                    : A_TRUEHD
Bit rate mode              : Variable
Maximum bit rate            : 7 500 Kbps
Channel(s)                  : Object Based / 8 channels
Channel positions          : Object Based / Front: L C R, Side: L R, Back: L R, LFE
Sampling rate              :  / 48.0 KHz
Frame rate                  : 1 200.000 fps (40 spf)
Compression mode            : Lossless
Title                      : 13.Hours.The.Secret.Soldiers.of.Benghazi.2016.1080p.BluRay.REMUX.AVC.TrueHD.7.1.Atmos-RARBG
Language                    : English
Default                    : Yes
Forced                      : No

Audio #2
ID                          : 3
Format                      : AC-3
Format/Info                : Audio Coding 3
Mode extension              : CM (complete main)
Format settings, Endianness : Big
Codec ID                    : A_AC3
Duration                    : 2h 24mn
Bit rate mode              : Constant
Bit rate                    : 640 Kbps
Channel(s)                  : 6 channels
Channel positions          : Front: L C R, Side: L R, LFE
Sampling rate              : 48.0 KHz
Frame rate                  : 31.250 fps (1536 spf)
Compression mode            : Lossy
Stream size                : 661 MiB (2%)
Title                      : 13.Hours.The.Secret.Soldiers.of.Benghazi.2016.1080p.BluRay.REMUX.AVC.TrueHD.7.1.Atmos-RARBG
Language                    : English
Default                    : No
Forced                      : No

Audio #3
ID                          : 4
Format                      : AC-3
Format/Info                : Audio Coding 3
Mode extension              : CM (complete main)
Format settings, Endianness : Big
Codec ID                    : A_AC3
Duration                    : 2h 24mn
Bit rate mode              : Constant
Bit rate                    : 640 Kbps
Channel(s)                  : 6 channels
Channel positions          : Front: L C R, Side: L R, LFE
Sampling rate              : 48.0 KHz
Frame rate                  : 31.250 fps (1536 spf)
Compression mode            : Lossy
Stream size                : 661 MiB (2%)
Title                      : 13.Hours.The.Secret.Soldiers.of.Benghazi.2016.1080p.BluRay.REMUX.AVC.TrueHD.7.1.Atmos-RARBG
Language                    : English
Default                    : No
Forced                      : No

Audio #4
ID                          : 5
Format                      : AC-3
Format/Info                : Audio Coding 3
Format profile              : Dolby Digital
Mode extension              : CM (complete main)
Format settings, Endianness : Big
Codec ID                    : A_AC3
Duration                    : 2h 24mn
Bit rate mode              : Constant
Bit rate                    : 224 Kbps
Channel(s)                  : 2 channels
Channel positions          : Front: L R
Sampling rate              : 48.0 KHz
Frame rate                  : 31.250 fps (1536 spf)
Compression mode            : Lossy
Stream size                : 232 MiB (1%)
Title                      : 13.Hours.The.Secret.Soldiers.of.Benghazi.2016.1080p.BluRay.REMUX.AVC.TrueHD.7.1.Atmos-RARBG
Language                    : English
Default                    : No
Forced                      : No

Audio #5
ID                          : 6
Format                      : AC-3
Format/Info                : Audio Coding 3
Mode extension              : CM (complete main)
Format settings, Endianness : Big
Codec ID                    : A_AC3
Duration                    : 2h 24mn
Bit rate mode              : Constant
Bit rate                    : 640 Kbps
Channel(s)                  : 6 channels
Channel positions          : Front: L C R, Side: L R, LFE
Sampling rate              : 48.0 KHz
Frame rate                  : 31.250 fps (1536 spf)
Compression mode            : Lossy
Stream size                : 661 MiB (2%)
Title                      : 13.Hours.The.Secret.Soldiers.of.Benghazi.2016.1080p.BluRay.REMUX.AVC.TrueHD.7.1.Atmos-RARBG
Language                    : French
Default                    : No
Forced                      : No

Audio #6
ID                          : 7
Format                      : AC-3
Format/Info                : Audio Coding 3
Mode extension              : CM (complete main)
Format settings, Endianness : Big
Codec ID                    : A_AC3
Duration                    : 2h 24mn
Bit rate mode              : Constant
Bit rate                    : 640 Kbps
Channel(s)                  : 6 channels
Channel positions          : Front: L C R, Side: L R, LFE
Sampling rate              : 48.0 KHz
Frame rate                  : 31.250 fps (1536 spf)
Compression mode            : Lossy
Stream size                : 661 MiB (2%)
Title                      : 13.Hours.The.Secret.Soldiers.of.Benghazi.2016.1080p.BluRay.REMUX.AVC.TrueHD.7.1.Atmos-RARBG
Language                    : Spanish
Default                    : No
Forced                      : No

Audio #7
ID                          : 8
Format                      : AC-3
Format/Info                : Audio Coding 3
Mode extension              : CM (complete main)
Format settings, Endianness : Big
Codec ID                    : A_AC3
Duration                    : 2h 24mn
Bit rate mode              : Constant
Bit rate                    : 640 Kbps
Channel(s)                  : 6 channels
Channel positions          : Front: L C R, Side: L R, LFE
Sampling rate              : 48.0 KHz
Frame rate                  : 31.250 fps (1536 spf)
Compression mode            : Lossy
Stream size                : 661 MiB (2%)
Title                      : 13.Hours.The.Secret.Soldiers.of.Benghazi.2016.1080p.BluRay.REMUX.AVC.TrueHD.7.1.Atmos-RARBG
Language                    : Portuguese
Default                    : No
Forced                      : No

Audio #8
ID                          : 9
Format                      : AC-3
Format/Info                : Audio Coding 3
Mode extension              : CM (complete main)
Format settings, Endianness : Big
Codec ID                    : A_AC3
Duration                    : 2h 24mn
Bit rate mode              : Constant
Bit rate                    : 640 Kbps
Channel(s)                  : 6 channels
Channel positions          : Front: L C R, Side: L R, LFE
Sampling rate              : 48.0 KHz
Frame rate                  : 31.250 fps (1536 spf)
Compression mode            : Lossy
Stream size                : 661 MiB (2%)
Title                      : 13.Hours.The.Secret.Soldiers.of.Benghazi.2016.1080p.BluRay.REMUX.AVC.TrueHD.7.1.Atmos-RARBG
Language                    : English
Default                    : No
Forced                      : No

Text #1
ID                          : 10
Format                      : PGS
Muxing mode                : zlib
Codec ID                    : S_HDMV/PGS
Codec ID/Info              : Picture based subtitle format used on BDs/HD-DVDs
Title                      : English-PGS
Language                    : English
Default                    : No
Forced                      : No

Text #2
ID                          : 11
Format                      : PGS
Muxing mode                : zlib
Codec ID                    : S_HDMV/PGS
Codec ID/Info              : Picture based subtitle format used on BDs/HD-DVDs
Title                      : English-SDH-PGS
Language                    : English
Default                    : No
Forced                      : No

Text #3
ID                          : 12
Format                      : PGS
Muxing mode                : zlib
Codec ID                    : S_HDMV/PGS
Codec ID/Info              : Picture based subtitle format used on BDs/HD-DVDs
Title                      : French-PGS
Language                    : French
Default                    : No
Forced                      : No

Text #4
ID                          : 13
Format                      : PGS
Muxing mode                : zlib
Codec ID                    : S_HDMV/PGS
Codec ID/Info              : Picture based subtitle format used on BDs/HD-DVDs
Title                      : French-FORCED-PGS
Language                    : French
Default                    : No
Forced                      : No

Text #5
ID                          : 14
Format                      : PGS
Muxing mode                : zlib
Codec ID                    : S_HDMV/PGS
Codec ID/Info              : Picture based subtitle format used on BDs/HD-DVDs
Title                      : Spanish-PGS
Language                    : Spanish
Default                    : No
Forced                      : No

Text #6
ID                          : 15
Format                      : PGS
Muxing mode                : zlib
Codec ID                    : S_HDMV/PGS
Codec ID/Info              : Picture based subtitle format used on BDs/HD-DVDs
Title                      : Spanish-FORCED-PGS
Language                    : Spanish
Default                    : No
Forced                      : No

Text #7
ID                          : 16
Format                      : PGS
Muxing mode                : zlib
Codec ID                    : S_HDMV/PGS
Codec ID/Info              : Picture based subtitle format used on BDs/HD-DVDs
Title                      : Portuguese-PGS
Language                    : Portuguese
Default                    : No
Forced                      : No

Text #8
ID                          : 17
Format                      : PGS
Muxing mode                : zlib
Codec ID                    : S_HDMV/PGS
Codec ID/Info              : Picture based subtitle format used on BDs/HD-DVDs
Title                      : Portuguese-FORCED-PGS
Language                    : Portuguese
Default                    : No
Forced                      : No

Menu
00:00:00.000                : en:Chapter 01
00:04:47.662                : en:Chapter 02
00:09:01.541                : en:Chapter 03
00:15:31.555                : en:Chapter 04
00:21:12.229                : en:Chapter 05
00:26:48.773                : en:Chapter 06
00:31:22.755                : en:Chapter 07
00:34:20.058                : en:Chapter 08
00:39:36.123                : en:Chapter 09
00:47:12.871                : en:Chapter 10
00:53:59.027                : en:Chapter 11
01:02:27.744                : en:Chapter 12
01:10:03.324                : en:Chapter 13
01:23:02.477                : en:Chapter 14
01:27:11.100                : en:Chapter 15
01:34:50.685                : en:Chapter 16
01:42:36.358                : en:Chapter 17
01:48:08.148                : en:Chapter 18
01:53:47.278                : en:Chapter 19
02:00:22.882                : en:Chapter 20
02:07:19.465                : en:Chapter 21
02:18:25.422                : en:Chapter 22


kód:

http://www.fastshare.cz/6033770/trb0861bossth31.part01.rar
http://www.fastshare.cz/6033788/trb0861bossth31.part02.rar
http://www.fastshare.cz/6033805/trb0861bossth31.part03.rar
http://www.fastshare.cz/6033818/trb0861bossth31.part04.rar
http://www.fastshare.cz/6033833/trb0861bossth31.part05.rar
http://www.fastshare.cz/6033843/trb0861bossth31.part06.rar
http://www.fastshare.cz/6033855/trb0861bossth31.part07.rar
http://www.fastshare.cz/6033866/trb0861bossth31.part08.rar
http://www.fastshare.cz/6033881/trb0861bossth31.part09.rar
http://www.fastshare.cz/6033895/trb0861bossth31.part10.rar
http://www.fastshare.cz/6033913/trb0861bossth31.part11.rar
http://www.fastshare.cz/6033934/trb0861bossth31.part12.rar
http://www.fastshare.cz/6033951/trb0861bossth31.part13.rar
http://www.fastshare.cz/6033965/trb0861bossth31.part14.rar
http://www.fastshare.cz/6033980/trb0861bossth31.part15.rar
http://www.fastshare.cz/6034194/trb0861bossth31.part16.rar
http://www.fastshare.cz/6034204/trb0861bossth31.part17.rar
http://www.fastshare.cz/6034213/trb0861bossth31.part18.rar
http://www.fastshare.cz/6034217/trb0861bossth31.part19.rar

kód:

http://file-share.top/file/204870/trb0861bossth31-part01-rar
http://file-share.top/file/204875/trb0861bossth31-part02-rar
http://file-share.top/file/204878/trb0861bossth31-part03-rar
http://file-share.top/file/204880/trb0861bossth31-part04-rar
http://file-share.top/file/204887/trb0861bossth31-part05-rar
http://file-share.top/file/204888/trb0861bossth31-part06-rar
http://file-share.top/file/204892/trb0861bossth31-part07-rar
http://file-share.top/file/204831/trb0861bossth31-part08-rar
http://file-share.top/file/204832/trb0861bossth31-part09-rar
http://file-share.top/file/204833/trb0861bossth31-part10-rar
http://file-share.top/file/204834/trb0861bossth31-part11-rar
http://file-share.top/file/204836/trb0861bossth31-part12-rar
http://file-share.top/file/204838/trb0861bossth31-part13-rar
http://file-share.top/file/204840/trb0861bossth31-part14-rar
http://file-share.top/file/204843/trb0861bossth31-part15-rar
http://file-share.top/file/204844/trb0861bossth31-part16-rar
http://file-share.top/file/204847/trb0861bossth31-part17-rar
http://file-share.top/file/204848/trb0861bossth31-part18-rar
http://file-share.top/file/204850/trb0861bossth31-part19-rar

kód:

http://sdilej.cz/7824346/yH1y/TRB0861BoSSTH31.part01.rar
http://sdilej.cz/7824420/IKDp/TRB0861BoSSTH31.part02.rar
http://sdilej.cz/7824432/1Ges/TRB0861BoSSTH31.part03.rar
http://sdilej.cz/7824472/81JS/TRB0861BoSSTH31.part04.rar
http://sdilej.cz/7824481/S8_s/TRB0861BoSSTH31.part05.rar
http://sdilej.cz/7824492/jZd4/TRB0861BoSSTH31.part06.rar
http://sdilej.cz/7824504/g0k0/TRB0861BoSSTH31.part07.rar
http://sdilej.cz/7824514/3M_6/TRB0861BoSSTH31.part08.rar
http://sdilej.cz/7824521/5_2W/TRB0861BoSSTH31.part09.rar
http://sdilej.cz/7824525/pL6q/TRB0861BoSSTH31.part10.rar
http://sdilej.cz/7824527/6H61/TRB0861BoSSTH31.part11.rar
http://sdilej.cz/7824529/S__p/TRB0861BoSSTH31.part12.rar
http://sdilej.cz/7824532/TU8Y/TRB0861BoSSTH31.part13.rar
http://sdilej.cz/7824534/4_M_/TRB0861BoSSTH31.part14.rar
http://sdilej.cz/7824540/1B0B/TRB0861BoSSTH31.part15.rar
http://sdilej.cz/7824543/1l2A/TRB0861BoSSTH31.part16.rar
http://sdilej.cz/7824546/cG_1/TRB0861BoSSTH31.part17.rar
http://sdilej.cz/7824548/bp_F/TRB0861BoSSTH31.part18.rar
http://sdilej.cz/7824551/2DC6/TRB0861BoSSTH31.part19.rar


[size=140]13.Hours.The.Secret.Soldiers.of.Benghazi.2016.1080p.BluRay.REMUX.AVC.DTS-HD.MA.7.1-RARBG + titulky[/size]

kód:
13.Hours.The.Secret.Soldiers.of.Benghazi.2016.1080p.BluRay.REMUX.AVC.DTS-HD.MA.7.1-RARBG
Format                      : Matroska
Format version              : Version 4 / Version 2
File size                  : 34.9 GiB
Duration                    : 2h 24mn
Overall bit rate mode      : Variable
Overall bit rate            : 34.5 Mbps
Movie name                  : 13.Hours.The.Secret.Soldiers.of.Benghazi.2016.1080p.BluRay.REMUX.AVC.DTS-HD.MA.7.1-RARBG
Encoded date                : UTC 2016-05-25 22:25:41
Writing application        : mkvmerge v9.1.0 ('Little Earthquakes') 64bit
Writing library            : libebml v1.3.3 + libmatroska v1.4.4
Cover                      : Yes
Attachments                : small_cover.jpg / small_cover_land.jpg / cover.jpg / cover_land.jpg / small_cover.jpg / small_cover_land.jpg / cover.jpg / cover_land.jpg

Video
ID                          : 1
Format                      : AVC
Format/Info                : Advanced Video Codec
Format profile              : High@L4.1
Format settings, CABAC      : Yes
Format settings, ReFrames  : 4 frames
Codec ID                    : V_MPEG4/ISO/AVC
Duration                    : 2h 24mn
Bit rate mode              : Variable
Maximum bit rate            : 29.0 Mbps
Width                      : 1 920 pixels
Height                      : 1 080 pixels
Display aspect ratio        : 16:9
Frame rate mode            : Constant
Frame rate                  : 23.976 (24000/1001) fps
Color space                : YUV
Chroma subsampling          : 4:2:0
Bit depth                  : 8 bits
Scan type                  : Progressive
Title                      : 13.Hours.The.Secret.Soldiers.of.Benghazi.2016.1080p.BluRay.REMUX.AVC.DTS-HD.MA.7.1-RARBG
Language                    : English
Default                    : No
Forced                      : No

Audio #1
ID                          : 2
Format                      : DTS
Format/Info                : Digital Theater Systems
Format profile              : MA / Core
Mode                        : 16
Format settings, Endianness : Big
Codec ID                    : A_DTS
Duration                    : 2h 24mn
Bit rate mode              : Variable / Constant
Bit rate                    : Unknown / 1 509 Kbps
Channel(s)                  : 8 channels / 6 channels
Channel positions          : Front: L C R, Side: L R, Back: L R, LFE / Front: L C R, Side: L R, LFE
Sampling rate              : 48.0 KHz
Frame rate                  : 93.750 fps (512 spf)
Bit depth                  : 24 bits
Compression mode            : Lossless / Lossy
Title                      : 13.Hours.The.Secret.Soldiers.of.Benghazi.2016.1080p.BluRay.REMUX.AVC.DTS-HD.MA.7.1-RARBG
Language                    : English
Default                    : Yes
Forced                      : No

Audio #2
ID                          : 3
Format                      : AC-3
Format/Info                : Audio Coding 3
Mode extension              : CM (complete main)
Format settings, Endianness : Big
Codec ID                    : A_AC3
Duration                    : 2h 24mn
Bit rate mode              : Constant
Bit rate                    : 640 Kbps
Channel(s)                  : 6 channels
Channel positions          : Front: L C R, Side: L R, LFE
Sampling rate              : 48.0 KHz
Frame rate                  : 31.250 fps (1536 spf)
Compression mode            : Lossy
Stream size                : 661 MiB (2%)
Title                      : 13.Hours.The.Secret.Soldiers.of.Benghazi.2016.1080p.BluRay.REMUX.AVC.TrueHD.7.1.Atmos-RARBG
Language                    : English
Default                    : No
Forced                      : No

Audio #3
ID                          : 4
Format                      : AC-3
Format/Info                : Audio Coding 3
Mode extension              : CM (complete main)
Format settings, Endianness : Big
Codec ID                    : A_AC3
Duration                    : 2h 24mn
Bit rate mode              : Constant
Bit rate                    : 640 Kbps
Channel(s)                  : 6 channels
Channel positions          : Front: L C R, Side: L R, LFE
Sampling rate              : 48.0 KHz
Frame rate                  : 31.250 fps (1536 spf)
Compression mode            : Lossy
Stream size                : 661 MiB (2%)
Title                      : 13.Hours.The.Secret.Soldiers.of.Benghazi.2016.1080p.BluRay.REMUX.AVC.TrueHD.7.1.Atmos-RARBG
Language                    : English
Default                    : No
Forced                      : No

Audio #4
ID                          : 5
Format                      : AC-3
Format/Info                : Audio Coding 3
Format profile              : Dolby Digital
Mode extension              : CM (complete main)
Format settings, Endianness : Big
Codec ID                    : A_AC3
Duration                    : 2h 24mn
Bit rate mode              : Constant
Bit rate                    : 224 Kbps
Channel(s)                  : 2 channels
Channel positions          : Front: L R
Sampling rate              : 48.0 KHz
Frame rate                  : 31.250 fps (1536 spf)
Compression mode            : Lossy
Stream size                : 232 MiB (1%)
Title                      : 13.Hours.The.Secret.Soldiers.of.Benghazi.2016.1080p.BluRay.REMUX.AVC.TrueHD.7.1.Atmos-RARBG
Language                    : English
Default                    : No
Forced                      : No

Audio #5
ID                          : 6
Format                      : AC-3
Format/Info                : Audio Coding 3
Mode extension              : CM (complete main)
Format settings, Endianness : Big
Codec ID                    : A_AC3
Duration                    : 2h 24mn
Bit rate mode              : Constant
Bit rate                    : 640 Kbps
Channel(s)                  : 6 channels
Channel positions          : Front: L C R, Side: L R, LFE
Sampling rate              : 48.0 KHz
Frame rate                  : 31.250 fps (1536 spf)
Compression mode            : Lossy
Stream size                : 661 MiB (2%)
Title                      : 13.Hours.The.Secret.Soldiers.of.Benghazi.2016.1080p.BluRay.REMUX.AVC.TrueHD.7.1.Atmos-RARBG
Language                    : French
Default                    : No
Forced                      : No

Audio #6
ID                          : 7
Format                      : AC-3
Format/Info                : Audio Coding 3
Mode extension              : CM (complete main)
Format settings, Endianness : Big
Codec ID                    : A_AC3
Duration                    : 2h 24mn
Bit rate mode              : Constant
Bit rate                    : 640 Kbps
Channel(s)                  : 6 channels
Channel positions          : Front: L C R, Side: L R, LFE
Sampling rate              : 48.0 KHz
Frame rate                  : 31.250 fps (1536 spf)
Compression mode            : Lossy
Stream size                : 661 MiB (2%)
Title                      : 13.Hours.The.Secret.Soldiers.of.Benghazi.2016.1080p.BluRay.REMUX.AVC.TrueHD.7.1.Atmos-RARBG
Language                    : Spanish
Default                    : No
Forced                      : No

Audio #7
ID                          : 8
Format                      : AC-3
Format/Info                : Audio Coding 3
Mode extension              : CM (complete main)
Format settings, Endianness : Big
Codec ID                    : A_AC3
Duration                    : 2h 24mn
Bit rate mode              : Constant
Bit rate                    : 640 Kbps
Channel(s)                  : 6 channels
Channel positions          : Front: L C R, Side: L R, LFE
Sampling rate              : 48.0 KHz
Frame rate                  : 31.250 fps (1536 spf)
Compression mode            : Lossy
Stream size                : 661 MiB (2%)
Title                      : 13.Hours.The.Secret.Soldiers.of.Benghazi.2016.1080p.BluRay.REMUX.AVC.TrueHD.7.1.Atmos-RARBG
Language                    : Portuguese
Default                    : No
Forced                      : No

Audio #8
ID                          : 9
Format                      : AC-3
Format/Info                : Audio Coding 3
Mode extension              : CM (complete main)
Format settings, Endianness : Big
Codec ID                    : A_AC3
Duration                    : 2h 24mn
Bit rate mode              : Constant
Bit rate                    : 640 Kbps
Channel(s)                  : 6 channels
Channel positions          : Front: L C R, Side: L R, LFE
Sampling rate              : 48.0 KHz
Frame rate                  : 31.250 fps (1536 spf)
Compression mode            : Lossy
Stream size                : 661 MiB (2%)
Title                      : 13.Hours.The.Secret.Soldiers.of.Benghazi.2016.1080p.BluRay.REMUX.AVC.TrueHD.7.1.Atmos-RARBG
Language                    : English
Default                    : No
Forced                      : No

Text #1
ID                          : 10
Format                      : PGS
Muxing mode                : zlib
Codec ID                    : S_HDMV/PGS
Codec ID/Info              : Picture based subtitle format used on BDs/HD-DVDs
Title                      : English-PGS
Language                    : English
Default                    : No
Forced                      : No

Text #2
ID                          : 11
Format                      : PGS
Muxing mode                : zlib
Codec ID                    : S_HDMV/PGS
Codec ID/Info              : Picture based subtitle format used on BDs/HD-DVDs
Title                      : English-SDH-PGS
Language                    : English
Default                    : No
Forced                      : No

Text #3
ID                          : 12
Format                      : PGS
Muxing mode                : zlib
Codec ID                    : S_HDMV/PGS
Codec ID/Info              : Picture based subtitle format used on BDs/HD-DVDs
Title                      : French-PGS
Language                    : French
Default                    : No
Forced                      : No

Text #4
ID                          : 13
Format                      : PGS
Muxing mode                : zlib
Codec ID                    : S_HDMV/PGS
Codec ID/Info              : Picture based subtitle format used on BDs/HD-DVDs
Title                      : French-FORCED-PGS
Language                    : French
Default                    : No
Forced                      : No

Text #5
ID                          : 14
Format                      : PGS
Muxing mode                : zlib
Codec ID                    : S_HDMV/PGS
Codec ID/Info              : Picture based subtitle format used on BDs/HD-DVDs
Title                      : Spanish-PGS
Language                    : Spanish
Default                    : No
Forced                      : No

Text #6
ID                          : 15
Format                      : PGS
Muxing mode                : zlib
Codec ID                    : S_HDMV/PGS
Codec ID/Info              : Picture based subtitle format used on BDs/HD-DVDs
Title                      : Spanish-FORCED-PGS
Language                    : Spanish
Default                    : No
Forced                      : No

Text #7
ID                          : 16
Format                      : PGS
Muxing mode                : zlib
Codec ID                    : S_HDMV/PGS
Codec ID/Info              : Picture based subtitle format used on BDs/HD-DVDs
Title                      : Portuguese-PGS
Language                    : Portuguese
Default                    : No
Forced                      : No

Text #8
ID                          : 17
Format                      : PGS
Muxing mode                : zlib
Codec ID                    : S_HDMV/PGS
Codec ID/Info              : Picture based subtitle format used on BDs/HD-DVDs
Title                      : Portuguese-FORCED-PGS
Language                    : Portuguese
Default                    : No
Forced                      : No

Menu
00:00:00.000                : en:Chapter 01
00:04:47.662                : en:Chapter 02
00:09:01.541                : en:Chapter 03
00:15:31.555                : en:Chapter 04
00:21:12.229                : en:Chapter 05
00:26:48.773                : en:Chapter 06
00:31:22.755                : en:Chapter 07
00:34:20.058                : en:Chapter 08
00:39:36.123                : en:Chapter 09
00:47:12.871                : en:Chapter 10
00:53:59.027                : en:Chapter 11
01:02:27.744                : en:Chapter 12
01:10:03.324                : en:Chapter 13
01:23:02.477                : en:Chapter 14
01:27:11.100                : en:Chapter 15
01:34:50.685                : en:Chapter 16
01:42:36.358                : en:Chapter 17
01:48:08.148                : en:Chapter 18
01:53:47.278                : en:Chapter 19
02:00:22.882                : en:Chapter 20
02:07:19.465                : en:Chapter 21
02:18:25.422                : en:Chapter 22


kód:

http://www.fastshare.cz/6034435/drb08016102bossth1.part01.rar
http://www.fastshare.cz/6034439/drb08016102bossth1.part02.rar
http://www.fastshare.cz/6034442/drb08016102bossth1.part03.rar
http://www.fastshare.cz/6034445/drb08016102bossth1.part04.rar
http://www.fastshare.cz/6034449/drb08016102bossth1.part05.rar
http://www.fastshare.cz/6034454/drb08016102bossth1.part06.rar
http://www.fastshare.cz/6034457/drb08016102bossth1.part07.rar
http://www.fastshare.cz/6034461/drb08016102bossth1.part08.rar
http://www.fastshare.cz/6034463/drb08016102bossth1.part09.rar
http://www.fastshare.cz/6034467/drb08016102bossth1.part10.rar
http://www.fastshare.cz/6034472/drb08016102bossth1.part11.rar
http://www.fastshare.cz/6034477/drb08016102bossth1.part12.rar
http://www.fastshare.cz/6034479/drb08016102bossth1.part13.rar
http://www.fastshare.cz/6034483/drb08016102bossth1.part14.rar
http://www.fastshare.cz/6034486/drb08016102bossth1.part15.rar
http://www.fastshare.cz/6034490/drb08016102bossth1.part16.rar
http://www.fastshare.cz/6034493/drb08016102bossth1.part17.rar
http://www.fastshare.cz/6034497/drb08016102bossth1.part18.rar

kód:

http://file-share.top/file/204973/drb08016102bossth1-part01-rar
http://file-share.top/file/204976/drb08016102bossth1-part02-rar
http://file-share.top/file/204979/drb08016102bossth1-part03-rar
http://file-share.top/file/204982/drb08016102bossth1-part04-rar
http://file-share.top/file/204985/drb08016102bossth1-part05-rar
http://file-share.top/file/204987/drb08016102bossth1-part06-rar
http://file-share.top/file/204991/drb08016102bossth1-part07-rar
http://file-share.top/file/204994/drb08016102bossth1-part08-rar
http://file-share.top/file/204998/drb08016102bossth1-part09-rar
http://file-share.top/file/205001/drb08016102bossth1-part10-rar
http://file-share.top/file/205004/drb08016102bossth1-part11-rar
http://file-share.top/file/205007/drb08016102bossth1-part12-rar
http://file-share.top/file/205010/drb08016102bossth1-part13-rar
http://file-share.top/file/205014/drb08016102bossth1-part14-rar
http://file-share.top/file/205017/drb08016102bossth1-part15-rar
http://file-share.top/file/205020/drb08016102bossth1-part16-rar
http://file-share.top/file/205024/drb08016102bossth1-part17-rar
http://file-share.top/file/205028/drb08016102bossth1-part18-rar

kód:

http://sdilej.cz/7824644/GAs8/DRB08016102BoSSTH1.part01.rar
http://sdilej.cz/7824647/NDlF/DRB08016102BoSSTH1.part02.rar
http://sdilej.cz/7824648/28D7/DRB08016102BoSSTH1.part03.rar
http://sdilej.cz/7824650/uAHG/DRB08016102BoSSTH1.part04.rar
http://sdilej.cz/7824653/N634/DRB08016102BoSSTH1.part05.rar
http://sdilej.cz/7824655/dkQ4/DRB08016102BoSSTH1.part06.rar
http://sdilej.cz/7824658/zALK/DRB08016102BoSSTH1.part07.rar
http://sdilej.cz/7824661/9vQB/DRB08016102BoSSTH1.part08.rar
http://sdilej.cz/7824663/0dp_/DRB08016102BoSSTH1.part09.rar
http://sdilej.cz/7824668/4n4z/DRB08016102BoSSTH1.part10.rar
http://sdilej.cz/7824674/m_J_/DRB08016102BoSSTH1.part11.rar
http://sdilej.cz/7824676/scKQ/DRB08016102BoSSTH1.part12.rar
http://sdilej.cz/7824679/X7hs/DRB08016102BoSSTH1.part13.rar
http://sdilej.cz/7824682/ZOAz/DRB08016102BoSSTH1.part14.rar
http://sdilej.cz/7824684/_pqj/DRB08016102BoSSTH1.part15.rar
http://sdilej.cz/7824688/B0Ss/DRB08016102BoSSTH1.part16.rar
http://sdilej.cz/7824690/60Y9/DRB08016102BoSSTH1.part17.rar
http://sdilej.cz/7824698/kQjl/DRB08016102BoSSTH1.part18.rar

Upload 3% na opravu dat

no pass
Návrat hore Goto down
Zobrazit informácie o autorovi
 
13 Hours: The Secret Soldiers of Benghazi /13 hodin:..(2016)
Zobraziť predchádzajúcu tému Zobraziť nasledujúcu tému Návrat hore 
Strana 1 z 1

Povolenie tohoto fóra:Nemôžete odpovedať na témy v tomto fóre.
Warforum :: Sťahuj :: FILMY-
Prejdi na: