Warforum

stahuj.forumonline.biz
 
DomovFAQHľadaťRegistráciaZoznam užívateľovUžívateľské skupinyPrihlásenie

Share | 
 

 The Brothers Grimsby / Grimsby (2016)

Zobraziť predchádzajúcu tému Zobraziť nasledujúcu tému Goto down 
AutorSpráva
Jack86



Počet príspevkov : 110
Registration date : 10.02.2010

OdoslaťPredmet: The Brothers Grimsby / Grimsby (2016)   Po máj 30, 2016 12:22 am




kód:

http://www.csfd.cz/film/374793-grimsby/prehled/
http://www.imdb.com/title/tt3381008/combined


[size=140]The.Brothers.Grimsby.2016.1080p.WEB-DL.DD5.1.H264-RARBG + titulky[/size]

kód:
The.Brothers.Grimsby.2016.1080p.WEB-DL.DD5.1.H264-RARBG
Format                      : Matroska
Format version              : Version 4 / Version 2
File size                  : 2.82 GiB
Duration                    : 1h 23mn
Overall bit rate            : 4 836 Kbps
Movie name                  : The.Brothers.Grimsby.2016.1080p.WEB-DL.DD5.1.H264-RARBG
Encoded date                : UTC 2016-05-24 04:25:39
Writing application        : mkvmerge v9.1.0 ('Little Earthquakes') 64bit
Writing library            : libebml v1.3.3 + libmatroska v1.4.4
Cover                      : Yes
Attachments                : small_cover.jpg / small_cover_land.jpg / cover.jpg / cover_land.jpg

Video
ID                          : 1
Format                      : AVC
Format/Info                : Advanced Video Codec
Format profile              : High@L4
Format settings, CABAC      : Yes
Format settings, ReFrames  : 5 frames
Codec ID                    : V_MPEG4/ISO/AVC
Duration                    : 1h 23mn
Bit rate                    : 4 356 Kbps
Width                      : 1 916 pixels
Height                      : 798 pixels
Display aspect ratio        : 2.40:1
Frame rate mode            : Constant
Frame rate                  : 23.976 fps
Color space                : YUV
Chroma subsampling          : 4:2:0
Bit depth                  : 8 bits
Scan type                  : Progressive
Bits/(Pixel*Frame)          : 0.119
Stream size                : 2.54 GiB (90%)
Title                      : The.Brothers.Grimsby.2016.1080p.WEB-DL.DD5.1.H264-RARBG
Language                    : English
Default                    : Yes
Forced                      : No
Color range                : Limited
Color primaries            : BT.709
Transfer characteristics    : BT.709
Matrix coefficients        : BT.709

Audio
ID                          : 2
Format                      : AC-3
Format/Info                : Audio Coding 3
Mode extension              : CM (complete main)
Format settings, Endianness : Big
Codec ID                    : A_AC3
Duration                    : 1h 23mn
Bit rate mode              : Constant
Bit rate                    : 384 Kbps
Channel(s)                  : 6 channels
Channel positions          : Front: L C R, Side: L R, LFE
Sampling rate              : 48.0 KHz
Frame rate                  : 31.250 fps (1536 spf)
Compression mode            : Lossy
Stream size                : 229 MiB (8%)
Title                      : The.Brothers.Grimsby.2016.1080p.WEB-DL.DD5.1.H264-RARBG
Language                    : English
Default                    : Yes
Forced                      : No

Text
ID                          : 3
Format                      : UTF-8
Codec ID                    : S_TEXT/UTF8
Codec ID/Info              : UTF-8 Plain Text
Language                    : English
Default                    : Yes
Forced                      : No

Menu
00:00:00.000                : en:1
00:06:53.413                : en:2
00:11:00.076                : en:3
00:16:23.983                : en:4
00:21:36.712                : en:5
00:26:42.809                : en:6
00:31:45.945                : en:7
00:36:47.788                : en:8
00:41:56.138                : en:9
00:46:54.060                : en:10
00:52:18.676                : en:11
00:57:27.568                : en:12
01:01:26.932                : en:13
01:06:15.220                : en:14
01:11:51.180                : en:15
01:16:24.995                : en:16

kód:

http://www.fastshare.cz/6031448/the.brothers.grimsby.2016.1080p.web-dl.dd5.1.h264-rarbg.mkv
http://www.fastshare.cz/6031449/the.brothers.grimsby.2016.1080p.web-dl.dd5.1.h264-rarbg.srt

kód:

http://file-share.top/file/204353/the-brothers-grimsby-2016-1080p-web-dl-dd5-1-h264-rarbg-mkv
http://file-share.top/file/204354/the-brothers-grimsby-2016-1080p-web-dl-dd5-1-h264-rarbg-srt

kód:

http://sdilej.cz/7823223/JPEN/The.Brothers.Grimsby.2016.1080p.WEB_DL.DD5.1.H264_RARBG.mkv
https://sdilej.cz/7823225/The.Brothers.Grimsby.2016.1080p.WEB-DL.DD5.1.H264-RARBG.srt


kód:

http://www.fastshare.cz/6031425/dw08016102gbt.part1.rar
http://www.fastshare.cz/6031427/dw08016102gbt.part2.rar

kód:

http://file-share.top/file/204349/dw08016102gbt-part1-rar
http://file-share.top/file/204350/dw08016102gbt-part2-rar

kód:

http://sdilej.cz/7823202/L4QL/DW08016102GBT.part1.rar
http://sdilej.cz/7823205/xiPA/DW08016102GBT.part2.rar


Upload 3% na opravu dat

no pass
Návrat hore Goto down
Zobrazit informácie o autorovi
 
The Brothers Grimsby / Grimsby (2016)
Zobraziť predchádzajúcu tému Zobraziť nasledujúcu tému Návrat hore 
Strana 1 z 1

Povolenie tohoto fóra:Nemôžete odpovedať na témy v tomto fóre.
Warforum :: Sťahuj :: FILMY-
Prejdi na: