Warforum

stahuj.forumonline.biz
 
DomovFAQHľadaťRegistráciaZoznam užívateľovUžívateľské skupinyPrihlásenie

Share | 
 

 San Andreas (2015)

Zobraziť predchádzajúcu tému Zobraziť nasledujúcu tému Goto down 
AutorSpráva
Jack86



Počet príspevkov : 110
Registration date : 10.02.2010

OdoslaťPredmet: San Andreas (2015)   So máj 28, 2016 10:51 pm




kód:

http://www.csfd.cz/film/319379-san-andreas/prehled/
http://www.imdb.com/title/tt2126355/combined


[size=140]San.Andreas.2015.1080p.BluRay.DD5.1.x264.CZ-FTU[/size]

kód:
San.Andreas.2015.1080p.BluRay.DD5.1.x264.CZ-FTU
Format                      : Matroska
Format version              : Version 2
File size                  : 13.6 GiB
Duration                    : 1h 54mn
Overall bit rate            : 17.0 Mbps
Encoded date                : UTC 2015-09-27 09:39:38
Writing application        : mkvmerge v8.2.0 ('World of Adventure') 32bit
Writing library            : libebml v1.3.1 + libmatroska v1.4.2

Video
ID                          : 1
Format                      : AVC
Format/Info                : Advanced Video Codec
Format profile              : High@L4.1
Format settings, CABAC      : Yes
Format settings, ReFrames  : 5 frames
Codec ID                    : V_MPEG4/ISO/AVC
Duration                    : 1h 54mn
Bit rate                    : 15.8 Mbps
Width                      : 1 920 pixels
Height                      : 798 pixels
Display aspect ratio        : 2.40:1
Frame rate mode            : Constant
Frame rate                  : 23.976 (24000/1001) fps
Color space                : YUV
Chroma subsampling          : 4:2:0
Bit depth                  : 8 bits
Scan type                  : Progressive
Bits/(Pixel*Frame)          : 0.429
Stream size                : 12.6 GiB (92%)
Title                      : HDClub
Writing library            : x264 core 142 r2431+42 c69a006 tMod [8-bit@all X86_64]
Encoding settings          : cabac=1 / ref=5 / deblock=1:-3:-3 / analyse=0x3:0x133 / me=umh / subme=11 / psy=1 / fade_compensate=0.00 / psy_rd=1.00:0.00 / mixed_ref=1 / me_range=48 / chroma_me=1 / trellis=2 / 8x8dct=1 / cqm=0 / deadzone=21,11 / fast_pskip=0 / chroma_qp_offset=-2 / threads=24 / lookahead_threads=4 / sliced_threads=0 / nr=0 / decimate=1 / interlaced=0 / bluray_compat=0 / constrained_intra=0 / fgo=0 / bframes=8 / b_pyramid=2 / b_adapt=2 / b_bias=0 / direct=1 / weightb=1 / open_gop=0 / weightp=2 / keyint=240 / keyint_min=23 / scenecut=40 / intra_refresh=0 / rc_lookahead=60 / rc=crf / mbtree=0 / crf=17.2000 / qcomp=0.60 / qpmin=0:0:0 / qpmax=69:69:69 / qpstep=4 / vbv_maxrate=50000 / vbv_bufsize=62500 / crf_max=0.0 / nal_hrd=none / filler=0 / ip_ratio=1.35 / pb_ratio=1.25 / aq=4:0.80 / aq-sensitivity=10.00 / aq-factor=1.00:1.00:1.00 / aq2=0 / aq3=0
Default                    : No
Forced                      : No

Audio #1
ID                          : 2
Format                      : AC-3
Format/Info                : Audio Coding 3
Mode extension              : CM (complete main)
Format settings, Endianness : Big
Codec ID                    : A_AC3
Duration                    : 1h 54mn
Bit rate mode              : Constant
Bit rate                    : 448 Kbps
Channel(s)                  : 6 channels
Channel positions          : Front: L C R, Side: L R, LFE
Sampling rate              : 48.0 KHz
Frame rate                  : 31.250 fps (1536 spf)
Compression mode            : Lossy
Stream size                : 367 MiB (3%)
Language                    : Czech
Default                    : Yes
Forced                      : No

Audio #2
ID                          : 3
Format                      : AC-3
Format/Info                : Audio Coding 3
Mode extension              : CM (complete main)
Format settings, Endianness : Big
Codec ID                    : A_AC3
Duration                    : 1h 54mn
Bit rate mode              : Constant
Bit rate                    : 640 Kbps
Channel(s)                  : 6 channels
Channel positions          : Front: L C R, Side: L R, LFE
Sampling rate              : 48.0 KHz
Frame rate                  : 31.250 fps (1536 spf)
Compression mode            : Lossy
Stream size                : 524 MiB (4%)
Language                    : English
Default                    : No
Forced                      : No

Audio #3
ID                          : 4
Format                      : AC-3
Format/Info                : Audio Coding 3
Format profile              : Dolby Digital
Mode extension              : CM (complete main)
Format settings, Endianness : Big
Codec ID                    : A_AC3
Duration                    : 1h 54mn
Bit rate mode              : Constant
Bit rate                    : 192 Kbps
Channel(s)                  : 2 channels
Channel positions          : Front: L R
Sampling rate              : 48.0 KHz
Frame rate                  : 31.250 fps (1536 spf)
Compression mode            : Lossy
Stream size                : 157 MiB (1%)
Title                      : Audio Commentary by Director Brad Peyton
Language                    : English
Default                    : No
Forced                      : No

Text #1
ID                          : 5
Format                      : UTF-8
Codec ID                    : S_TEXT/UTF8
Codec ID/Info              : UTF-8 Plain Text
Duration                    : 1h 52mn
Bit rate                    : 0 bps
Count of elements          : 17
Stream size                : 466 Bytes (0%)
Title                      : forced
Language                    : Czech
Default                    : Yes
Forced                      : Yes

Text #2
ID                          : 6
Format                      : UTF-8
Codec ID                    : S_TEXT/UTF8
Codec ID/Info              : UTF-8 Plain Text
Duration                    : 1h 53mn
Bit rate                    : 40 bps
Count of elements          : 1202
Stream size                : 33.3 KiB (0%)
Language                    : Czech
Default                    : No
Forced                      : No

Menu
00:00:00.000                : en:00:00:00.000
00:09:29.944                : en:00:09:29.944
00:18:47.209                : en:00:18:47.209
00:30:10.100                : en:00:30:10.100
00:40:08.823                : en:00:40:08.823
00:50:18.098                : en:00:50:18.098
00:59:44.498                : en:00:59:44.498
01:11:27.366                : en:01:11:27.366
01:19:43.612                : en:01:19:43.612
01:30:40.810                : en:01:30:40.810
01:39:56.490                : en:01:39:56.490
01:47:10.924                : en:01:47:10.924


kód:

http://www.fastshare.cz/6025773/08015102as.part1.rar
http://www.fastshare.cz/6025780/08015102as.part2.rar
http://www.fastshare.cz/6025793/08015102as.part3.rar
http://www.fastshare.cz/6025806/08015102as.part4.rar
http://www.fastshare.cz/6025826/08015102as.part5.rar
http://www.fastshare.cz/6025839/08015102as.part6.rar
http://www.fastshare.cz/6025852/08015102as.part7.rar
http://www.fastshare.cz/6025853/08015102as.part8.rar

kód:

http://file-share.top/file/203609/08015102as-part1-rar
http://file-share.top/file/203612/08015102as-part2-rar
http://file-share.top/file/203616/08015102as-part3-rar
http://file-share.top/file/203619/08015102as-part4-rar
http://file-share.top/file/203621/08015102as-part5-rar
http://file-share.top/file/203622/08015102as-part6-rar
http://file-share.top/file/203624/08015102as-part7-rar
http://file-share.top/file/203625/08015102as-part8-rar

kód:

http://sdilej.cz/7820851/cO2I/08015102AS.part1.rar
http://sdilej.cz/7820860/Xid_/08015102AS.part2.rar
http://sdilej.cz/7820866/h2If/08015102AS.part3.rar
http://sdilej.cz/7820872/oNH0/08015102AS.part4.rar
http://sdilej.cz/7820877/QyQ9/08015102AS.part5.rar
http://sdilej.cz/7820887/bxIc/08015102AS.part6.rar
http://sdilej.cz/7820893/vha7/08015102AS.part7.rar
http://sdilej.cz/7820895/wZiZ/08015102AS.part8.rar


Upload 3% na opravu dat

no pass
Návrat hore Goto down
Zobrazit informácie o autorovi
 
San Andreas (2015)
Zobraziť predchádzajúcu tému Zobraziť nasledujúcu tému Návrat hore 
Strana 1 z 1

Povolenie tohoto fóra:Nemôžete odpovedať na témy v tomto fóre.
Warforum :: Sťahuj :: FILMY-
Prejdi na: