Warforum

stahuj.forumonline.biz
 
DomovFAQHľadaťRegistráciaZoznam užívateľovUžívateľské skupinyPrihlásenie

Share | 
 

 Hardcore Henry (2015)

Zobraziť predchádzajúcu tému Zobraziť nasledujúcu tému Goto down 
AutorSpráva
Jack86



Počet príspevkov : 110
Registration date : 10.02.2010

OdoslaťPredmet: Hardcore Henry (2015)   Pi máj 27, 2016 11:26 pm




kód:

http://www.csfd.cz/film/386999-hardcore-henry/prehled/
http://www.imdb.com/title/tt3072482/combined


[size=140]Hardcore.Henry.2015.720p.HDRip.KORSUB.x264.AAC2.0-STUTTERSHIT + titulky[/size]

kód:
Hardcore.Henry.2015.720p.HDRip.KORSUB.x264.AAC2.0-STUTTERSHIT
Format                      : Matroska
Format version              : Version 4 / Version 2
File size                  : 2.90 GiB
Duration                    : 1h 36mn
Overall bit rate            : 4 301 Kbps
Movie name                  : Hardcore.Henry.2015.720p.HDRip.KORSUB.x264.AAC2.0-STUTTERSHIT
Encoded date                : UTC 2016-05-27 09:24:50
Writing application        : mkvmerge v9.1.0 ('Little Earthquakes') 64bit
Writing library            : libebml v1.3.3 + libmatroska v1.4.4
Cover                      : Yes
Attachments                : small_cover.jpg / small_cover_land.jpg / cover.jpg / cover_land.jpg

Video
ID                          : 1
Format                      : AVC
Format/Info                : Advanced Video Codec
Format profile              : Baseline@L3.1
Format settings, CABAC      : No
Format settings, ReFrames  : 1 frame
Codec ID                    : V_MPEG4/ISO/AVC
Duration                    : 1h 36mn
Width                      : 1 280 pixels
Height                      : 720 pixels
Display aspect ratio        : 16:9
Frame rate mode            : Constant
Frame rate                  : 29.970 fps
Color space                : YUV
Chroma subsampling          : 4:2:0
Bit depth                  : 8 bits
Scan type                  : Progressive
Title                      : Hardcore.Henry.2015.720p.HDRip.KORSUB.x264.AAC2.0-STUTTERSHIT
Language                    : English
Default                    : Yes
Forced                      : No

Audio
ID                          : 2
Format                      : AAC
Format/Info                : Advanced Audio Codec
Format profile              : LC
Codec ID                    : A_AAC
Duration                    : 1h 36mn
Channel(s)                  : 2 channels
Channel positions          : Front: L R
Sampling rate              : 44.1 KHz
Frame rate                  : 43.066 fps (1024 spf)
Compression mode            : Lossy
Delay relative to video    : -46ms
Title                      : Hardcore.Henry.2015.720p.HDRip.KORSUB.x264.AAC2.0-STUTTERSHIT
Language                    : English
Default                    : Yes
Forced                      : No

kód:

http://www.fastshare.cz/6028111/hardcore.henry.2015.720p.hdrip.korsub.x264.aac2.0-stuttershit.mkv
http://www.fastshare.cz/6028112/hardcore.henry.2015.720p.hdrip.korsub.x264.aac2.0-stuttershit.srt

kód:

http://file-share.top/file/203964/hardcore-henry-2015-720p-hdrip-korsub-x264-aac2-0-stuttershit-mkv
http://file-share.top/file/203965/hardcore-henry-2015-720p-hdrip-korsub-x264-aac2-0-stuttershit-srt

kód:

http://sdilej.cz/7822346/SwSI/Hardcore.Henry.2015.720p.HDRip.KORSUB.x264.AAC2.0_STUTTERSHIT.mkv
https://sdilej.cz/7822347/Hardcore.Henry.2015.720p.HDRip.KORSUB.x264.AAC2.0-STUTTERSHIT.srt


kód:

http://www.fastshare.cz/6028033/sk0275102hh.part1.rar
http://www.fastshare.cz/6028037/sk0275102hh.part2.rar

kód:

http://file-share.top/file/203957/sk0275102hh-part1-rar
http://file-share.top/file/203958/sk0275102hh-part2-rar

kód:

http://sdilej.cz/7822315/AF4I/SK0275102HH.part1.rar
http://sdilej.cz/7822319/N9_G/SK0275102HH.part2.rar


Upload 3% na opravu dat

no pass
Návrat hore Goto down
Zobrazit informácie o autorovi
Jack86



Počet príspevkov : 110
Registration date : 10.02.2010

OdoslaťPredmet: Hardcore Henry (2015)   St jún 22, 2016 7:23 pm




kód:

http://www.csfd.cz/film/386999-hardcore-henry/prehled/
http://www.imdb.com/title/tt3072482/combined


[size=140]Hardcore.Henry.2015.1080p.WEB-DL.DD5.1.H264-RARBG + titulky[/size]


Audio: EN
Titulky: CZ


kód:
Hardcore.Henry.2015.1080p.WEB-DL.DD5.1.H264-RARBG
Format                      : Matroska
Format version              : Version 4 / Version 2
File size                  : 3.79 GiB
Duration                    : 1h 36mn
Overall bit rate            : 5 609 Kbps
Movie name                  : Hardcore.Henry.2015.1080p.WEB-DL.DD5.1.H264-RARBG
Encoded date                : UTC 2016-06-21 11:51:31
Writing application        : mkvmerge v9.2.0 ('Photograph') 64bit
Writing library            : libebml v1.3.3 + libmatroska v1.4.4
Cover                      : Yes
Attachments                : cover_land.jpg / small_cover.jpg / small_cover_land.jpg / cover.jpg

Video
ID                          : 1
Format                      : AVC
Format/Info                : Advanced Video Codec
Format profile              : High@L4
Format settings, CABAC      : Yes
Format settings, ReFrames  : 4 frames
Codec ID                    : V_MPEG4/ISO/AVC
Duration                    : 1h 36mn
Bit rate                    : 5 114 Kbps
Width                      : 1 920 pixels
Height                      : 1 032 pixels
Display aspect ratio        : 1.85:1
Frame rate mode            : Constant
Frame rate                  : 23.976 fps
Color space                : YUV
Chroma subsampling          : 4:2:0
Bit depth                  : 8 bits
Scan type                  : Progressive
Bits/(Pixel*Frame)          : 0.108
Stream size                : 3.46 GiB (91%)
Title                      : Hardcore.Henry.2015.1080p.WEB-DL.DD5.1.H264-RARBG
Language                    : English
Default                    : Yes
Forced                      : No
Color range                : Limited
Color primaries            : BT.709
Transfer characteristics    : BT.709
Matrix coefficients        : BT.709

Audio
ID                          : 2
Format                      : AC-3
Format/Info                : Audio Coding 3
Mode extension              : CM (complete main)
Format settings, Endianness : Big
Codec ID                    : A_AC3
Duration                    : 1h 36mn
Bit rate mode              : Constant
Bit rate                    : 384 Kbps
Channel(s)                  : 6 channels
Channel positions          : Front: L C R, Side: L R, LFE
Sampling rate              : 48.0 KHz
Frame rate                  : 31.250 fps (1536 spf)
Compression mode            : Lossy
Stream size                : 266 MiB (7%)
Title                      : Hardcore.Henry.2015.1080p.WEB-DL.DD5.1.H264-RARBG
Language                    : English
Default                    : Yes
Forced                      : No

Text
ID                          : 3
Format                      : UTF-8
Codec ID                    : S_TEXT/UTF8
Codec ID/Info              : UTF-8 Plain Text
Language                    : English
Default                    : Yes
Forced                      : No

Menu
00:00:00.000                : en:Opening Sequence
00:04:00.000                : en:I Love You Henry
00:12:07.000                : en:Mercenaries
00:18:41.000                : en:I'm Kidding!
00:26:08.000                : en:You're Half Machine
00:34:15.000                : en:I Can't Do It
00:39:20.000                : en:Just Say Yes
00:43:57.000                : en:I Was So Scared
00:48:52.000                : en:Reboot
00:53:25.000                : en:Don't Compromise My Lab
00:59:36.000                : en:Under My Skin
01:07:16.000                : en:No More Lab
01:11:20.000                : en:The Memory Block
01:15:30.000                : en:The Soldiers
01:24:06.000                : en:You Didn't Make History
01:29:27.000                : en:End Credits

kód:

http://www.fastshare.cz/6099955/hardcore.henry.2015.1080p.web-dl.dd5.1.h264-rarbg.mkv
http://www.fastshare.cz/6099956/hardcore.henry.2015.1080p.web-dl.dd5.1.h264-rarbg.srt

kód:

http://file-share.top/file/218370/hardcore-henry-2015-1080p-web-dl-dd5-1-h264-rarbg-mkv
http://file-share.top/file/218371/hardcore-henry-2015-1080p-web-dl-dd5-1-h264-rarbg-srt

kód:

http://www.fastshare.cz/6099833/rdw08015102hh.rar

kód:

http://file-share.top/file/218343/rdw08015102hh-rar

kód:

http://www.fastshare.cz/6099792/rdw08015102hh.part1.rar
http://www.fastshare.cz/6099799/rdw08015102hh.part2.rar

kód:

http://file-share.top/file/218314/rdw08015102hh-part1-rar
http://file-share.top/file/218320/rdw08015102hh-part2-rar


Upload 3% na opravu dat

no pass
Návrat hore Goto down
Zobrazit informácie o autorovi
Jack86



Počet príspevkov : 110
Registration date : 10.02.2010

OdoslaťPredmet: Hardcore Henry (2015)   So júl 16, 2016 2:26 am




kód:

http://www.csfd.cz/film/386999-hardcore-henry/prehled/
http://www.imdb.com/title/tt3072482/combined


[size=140]Hardcore.Henry.2015.1080p.BluRay.x264-DRONES + titulky[/size]


Audio: EN
Titulky: CZ


kód:
Hardcore.Henry.2015.1080p.BluRay.x264-DRONES
Format                      : Matroska
Format version              : Version 4 / Version 2
File size                  : 7.65 GiB
Duration                    : 1h 36mn
Overall bit rate            : 11.3 Mbps
Encoded date                : UTC 2016-07-13 02:05:20
Writing application        : mkvmerge v8.3.0 ('Over the Horizon') 64bit
Writing library            : libebml v1.3.1 + libmatroska v1.4.2

Video
ID                          : 1
Format                      : AVC
Format/Info                : Advanced Video Codec
Format profile              : High@L4.1
Format settings, CABAC      : Yes
Format settings, ReFrames  : 4 frames
Codec ID                    : V_MPEG4/ISO/AVC
Duration                    : 1h 36mn
Bit rate                    : 9 801 Kbps
Width                      : 1 920 pixels
Height                      : 1 040 pixels
Display aspect ratio        : 1.85:1
Frame rate mode            : Constant
Frame rate                  : 23.976 fps
Color space                : YUV
Chroma subsampling          : 4:2:0
Bit depth                  : 8 bits
Scan type                  : Progressive
Bits/(Pixel*Frame)          : 0.205
Stream size                : 6.63 GiB (87%)
Writing library            : x264 core 148 r2692 64f4e24
Encoding settings          : cabac=1 / ref=4 / deblock=1:0:0 / analyse=0x3:0x133 / me=umh / subme=7 / psy=1 / psy_rd=1.00:0.00 / mixed_ref=1 / me_range=16 / chroma_me=1 / trellis=1 / 8x8dct=1 / cqm=0 / deadzone=21,11 / fast_pskip=0 / chroma_qp_offset=-2 / threads=18 / lookahead_threads=3 / sliced_threads=0 / nr=0 / decimate=1 / interlaced=0 / bluray_compat=0 / constrained_intra=0 / bframes=3 / b_pyramid=2 / b_adapt=1 / b_bias=0 / direct=1 / weightb=1 / open_gop=0 / weightp=2 / keyint=250 / keyint_min=23 / scenecut=40 / intra_refresh=0 / rc_lookahead=40 / rc=2pass / mbtree=1 / bitrate=9801 / ratetol=1.0 / qcomp=0.60 / qpmin=0 / qpmax=69 / qpstep=4 / cplxblur=20.0 / qblur=0.5 / ip_ratio=1.40 / aq=1:1.00
Language                    : English
Default                    : Yes
Forced                      : No

Audio
ID                          : 2
Format                      : DTS
Format/Info                : Digital Theater Systems
Mode                        : 16
Format settings, Endianness : Big
Codec ID                    : A_DTS
Duration                    : 1h 36mn
Bit rate mode              : Constant
Bit rate                    : 1 509 Kbps
Channel(s)                  : 6 channels
Channel positions          : Front: L C R, Side: L R, LFE
Sampling rate              : 48.0 KHz
Frame rate                  : 93.750 fps (512 spf)
Bit depth                  : 24 bits
Compression mode            : Lossy
Stream size                : 1.02 GiB (13%)
Language                    : English
Default                    : Yes
Forced                      : No

Menu
00:00:00.000                : en:00:00:00.000
00:04:04.494                : en:00:04:04.494
00:08:36.641                : en:00:08:36.641
00:14:12.935                : en:00:14:12.935
00:18:45.333                : en:00:18:45.333
00:22:38.816                : en:00:22:38.816
00:26:12.237                : en:00:26:12.237
00:30:05.345                : en:00:30:05.345
00:34:30.193                : en:00:34:30.193
00:37:44.429                : en:00:37:44.429
00:42:19.537                : en:00:42:19.537
00:47:05.406                : en:00:47:05.406
00:52:51.085                : en:00:52:51.085
00:56:00.482                : en:00:56:00.482
01:03:47.824                : en:01:03:47.824
01:11:23.988                : en:01:11:23.988
01:15:54.884                : en:01:15:54.884
01:22:04.670                : en:01:22:04.670
01:24:10.045                : en:01:24:10.045
01:29:31.116                : en:01:29:31.116

kód:

http://www.fastshare.cz/6174097/sdb0851hh.part1.rar
http://www.fastshare.cz/6174099/sdb0851hh.part2.rar
http://www.fastshare.cz/6174103/sdb0851hh.part3.rar
http://www.fastshare.cz/6174106/sdb0851hh.part4.rar

kód:

http://sdilej.cz/7877042/6SH_/SDB0851HH.part1.rar
http://sdilej.cz/7877043/287d/SDB0851HH.part2.rar
http://sdilej.cz/7877044/J7_Y/SDB0851HH.part3.rar
http://sdilej.cz/7877045/95N_/SDB0851HH.part4.rar

[size=140]Hardcore.Henry.2015.1080p.BluRay.x264.DTS-HD.MA.5.1-RARBG + titulky[/size]


Audio: EN
Titulky: CZ


kód:
Hardcore.Henry.2015.1080p.BluRay.x264.DTS-HD.MA.5.1-RARBG
Format                      : Matroska
Format version              : Version 4 / Version 2
File size                  : 9.52 GiB
Duration                    : 1h 36mn
Overall bit rate            : 14.1 Mbps
Movie name                  : Hardcore.Henry.2015.1080p.BluRay.x264.DTS-HD.MA.5.1-RARBG
Encoded date                : UTC 2016-07-14 17:31:27
Writing application        : mkvmerge v9.2.0 ('Photograph') 64bit
Writing library            : libebml v1.3.3 + libmatroska v1.4.4
Cover                      : Yes
Attachments                : cover.jpg / cover_land.jpg / small_cover.jpg / small_cover_land.jpg

Video
ID                          : 1
Format                      : AVC
Format/Info                : Advanced Video Codec
Format profile              : High@L4.1
Format settings, CABAC      : Yes
Format settings, ReFrames  : 4 frames
Codec ID                    : V_MPEG4/ISO/AVC
Duration                    : 1h 36mn
Nominal bit rate            : 9 801 Kbps
Width                      : 1 920 pixels
Height                      : 1 040 pixels
Display aspect ratio        : 1.85:1
Frame rate mode            : Constant
Frame rate                  : 23.976 fps
Color space                : YUV
Chroma subsampling          : 4:2:0
Bit depth                  : 8 bits
Scan type                  : Progressive
Bits/(Pixel*Frame)          : 0.205
Title                      : Hardcore.Henry.2015.1080p.BluRay.x264.DTS-HD.MA.5.1-RARBG
Writing library            : x264 core 148 r2692 64f4e24
Encoding settings          : cabac=1 / ref=4 / deblock=1:0:0 / analyse=0x3:0x133 / me=umh / subme=7 / psy=1 / psy_rd=1.00:0.00 / mixed_ref=1 / me_range=16 / chroma_me=1 / trellis=1 / 8x8dct=1 / cqm=0 / deadzone=21,11 / fast_pskip=0 / chroma_qp_offset=-2 / threads=18 / lookahead_threads=3 / sliced_threads=0 / nr=0 / decimate=1 / interlaced=0 / bluray_compat=0 / constrained_intra=0 / bframes=3 / b_pyramid=2 / b_adapt=1 / b_bias=0 / direct=1 / weightb=1 / open_gop=0 / weightp=2 / keyint=250 / keyint_min=23 / scenecut=40 / intra_refresh=0 / rc_lookahead=40 / rc=2pass / mbtree=1 / bitrate=9801 / ratetol=1.0 / qcomp=0.60 / qpmin=0 / qpmax=69 / qpstep=4 / cplxblur=20.0 / qblur=0.5 / ip_ratio=1.40 / aq=1:1.00
Language                    : English
Default                    : Yes
Forced                      : No

Audio
ID                          : 2
Format                      : DTS
Format/Info                : Digital Theater Systems
Format profile              : MA / Core
Mode                        : 16
Format settings, Endianness : Big
Codec ID                    : A_DTS
Duration                    : 1h 36mn
Bit rate mode              : Variable / Constant
Bit rate                    : Unknown / 1 509 Kbps
Channel(s)                  : 6 channels
Channel positions          : Front: L C R, Side: L R, LFE
Sampling rate              : 48.0 KHz
Frame rate                  : 93.750 fps (512 spf)
Bit depth                  : 24 bits
Compression mode            : Lossless / Lossy
Title                      : Hardcore.Henry.2015.1080p.BluRay.x264.DTS-HD.MA.5.1-RARBG
Language                    : English
Default                    : Yes
Forced                      : No

Text #1
ID                          : 3
Format                      : PGS
Muxing mode                : zlib
Codec ID                    : S_HDMV/PGS
Codec ID/Info              : Picture based subtitle format used on BDs/HD-DVDs
Title                      : English-PGS
Language                    : English
Default                    : No
Forced                      : No

Text #2
ID                          : 4
Format                      : PGS
Muxing mode                : zlib
Codec ID                    : S_HDMV/PGS
Codec ID/Info              : Picture based subtitle format used on BDs/HD-DVDs
Title                      : Spanish-PGS
Language                    : Spanish
Default                    : No
Forced                      : No

Text #3
ID                          : 5
Format                      : PGS
Muxing mode                : zlib
Codec ID                    : S_HDMV/PGS
Codec ID/Info              : Picture based subtitle format used on BDs/HD-DVDs
Title                      : French-PGS
Language                    : French
Default                    : No
Forced                      : No

Menu
00:00:00.000                : en:00:00:00.000
00:04:04.494                : en:00:04:04.494
00:08:36.641                : en:00:08:36.641
00:14:12.935                : en:00:14:12.935
00:18:45.333                : en:00:18:45.333
00:22:38.816                : en:00:22:38.816
00:26:12.237                : en:00:26:12.237
00:30:05.345                : en:00:30:05.345
00:34:30.193                : en:00:34:30.193
00:37:44.429                : en:00:37:44.429
00:42:19.537                : en:00:42:19.537
00:47:05.406                : en:00:47:05.406
00:52:51.085                : en:00:52:51.085
00:56:00.482                : en:00:56:00.482
01:03:47.824                : en:01:03:47.824
01:11:23.988                : en:01:11:23.988
01:15:54.884                : en:01:15:54.884
01:22:04.670                : en:01:22:04.670
01:24:10.045                : en:01:24:10.045
01:29:31.116                : en:01:29:31.116

kód:

http://www.fastshare.cz/6176835/grmhtdrb0851hh.part1.rar
http://www.fastshare.cz/6176966/grmhtdrb0851hh.part2.rar
http://www.fastshare.cz/6177091/grmhtdrb0851hh.part3.rar
http://www.fastshare.cz/6177134/grmhtdrb0851hh.part4.rar
http://www.fastshare.cz/6177250/grmhtdrb0851hh.part5.rar

kód:

http://sdilej.cz/7877170/FiqW/GRMHTDRB0851HH.part1.rar
http://sdilej.cz/7877171/Eg_Z/GRMHTDRB0851HH.part2.rar
http://sdilej.cz/7877173/ZF3S/GRMHTDRB0851HH.part3.rar
http://sdilej.cz/7877174/80YF/GRMHTDRB0851HH.part4.rar
http://sdilej.cz/7877175/7Add/GRMHTDRB0851HH.part5.rar

[size=140]Hardcore.Henry.2015.1080p.BluRay.REMUX.AVC.DTS-HD.MA.5.1-RARBG + titulky[/size]


Audio: EN
Titulky: CZ


kód:
Hardcore.Henry.2015.1080p.BluRay.REMUX.AVC.DTS-HD.MA.5.1-RARBG
Format                      : Matroska
Format version              : Version 4 / Version 2
File size                  : 27.1 GiB
Duration                    : 1h 36mn
Overall bit rate mode      : Variable
Overall bit rate            : 40.1 Mbps
Movie name                  : Hardcore.Henry.2015.1080p.BluRay.REMUX.AVC.DTS-HD.MA.5.1-RARBG
Encoded date                : UTC 2016-07-14 17:26:57
Writing application        : mkvmerge v9.2.0 ('Photograph') 64bit
Writing library            : libebml v1.3.3 + libmatroska v1.4.4
Cover                      : Yes
Attachments                : cover.jpg / cover_land.jpg / small_cover.jpg / small_cover_land.jpg

Video
ID                          : 1
Format                      : AVC
Format/Info                : Advanced Video Codec
Format profile              : High@L4.1
Format settings, CABAC      : Yes
Format settings, ReFrames  : 4 frames
Format settings, GOP        : M=3, N=12
Codec ID                    : V_MPEG4/ISO/AVC
Duration                    : 1h 36mn
Bit rate mode              : Variable
Maximum bit rate            : 37.0 Mbps
Width                      : 1 920 pixels
Height                      : 1 080 pixels
Display aspect ratio        : 16:9
Frame rate mode            : Constant
Frame rate                  : 23.976 (24000/1001) fps
Color space                : YUV
Chroma subsampling          : 4:2:0
Bit depth                  : 8 bits
Scan type                  : Progressive
Title                      : Hardcore.Henry.2015.1080p.BluRay.REMUX.AVC.DTS-HD.MA.5.1-RARBG
Language                    : English
Default                    : No
Forced                      : No

Audio #1
ID                          : 2
Format                      : DTS
Format/Info                : Digital Theater Systems
Format profile              : MA / Core
Mode                        : 16
Format settings, Endianness : Big
Codec ID                    : A_DTS
Duration                    : 1h 36mn
Bit rate mode              : Variable / Constant
Bit rate                    : Unknown / 1 509 Kbps
Channel(s)                  : 6 channels
Channel positions          : Front: L C R, Side: L R, LFE
Sampling rate              : 48.0 KHz
Frame rate                  : 93.750 fps (512 spf)
Bit depth                  : 24 bits
Compression mode            : Lossless / Lossy
Title                      : Hardcore.Henry.2015.1080p.BluRay.REMUX.AVC.DTS-HD.MA.5.1-RARBG
Language                    : English
Default                    : Yes
Forced                      : No

Audio #2
ID                          : 3
Format                      : DTS
Format/Info                : Digital Theater Systems
Mode                        : 16
Format settings, Endianness : Big
Codec ID                    : A_DTS
Duration                    : 1h 36mn
Bit rate mode              : Constant
Bit rate                    : 1 509 Kbps
Channel(s)                  : 6 channels
Channel positions          : Front: L C R, Side: L R, LFE
Sampling rate              : 48.0 KHz
Frame rate                  : 93.750 fps (512 spf)
Bit depth                  : 24 bits
Compression mode            : Lossy
Stream size                : 1.02 GiB (4%)
Title                      : Hardcore.Henry.2015.1080p.BluRay.REMUX.AVC.DTS-HD.MA.5.1-RARBG
Language                    : English
Default                    : No
Forced                      : No

Audio #3
ID                          : 4
Format                      : AC-3
Format/Info                : Audio Coding 3
Format profile              : Dolby Digital
Mode extension              : CM (complete main)
Format settings, Endianness : Big
Codec ID                    : A_AC3
Duration                    : 1h 36mn
Bit rate mode              : Constant
Bit rate                    : 192 Kbps
Channel(s)                  : 2 channels
Channel positions          : Front: L R
Sampling rate              : 48.0 KHz
Frame rate                  : 31.250 fps (1536 spf)
Compression mode            : Lossy
Stream size                : 133 MiB (0%)
Title                      : Hardcore.Henry.2015.1080p.BluRay.REMUX.AVC.DTS-HD.MA.5.1-RARBG
Language                    : English
Default                    : No
Forced                      : No

Audio #4
ID                          : 5
Format                      : AC-3
Format/Info                : Audio Coding 3
Format profile              : Dolby Digital
Mode extension              : CM (complete main)
Format settings, Endianness : Big
Codec ID                    : A_AC3
Duration                    : 1h 36mn
Bit rate mode              : Constant
Bit rate                    : 192 Kbps
Channel(s)                  : 2 channels
Channel positions          : Front: L R
Sampling rate              : 48.0 KHz
Frame rate                  : 31.250 fps (1536 spf)
Compression mode            : Lossy
Stream size                : 133 MiB (0%)
Title                      : Hardcore.Henry.2015.1080p.BluRay.REMUX.AVC.DTS-HD.MA.5.1-RARBG
Language                    : English
Default                    : No
Forced                      : No

Audio #5
ID                          : 6
Format                      : AC-3
Format/Info                : Audio Coding 3
Format profile              : Dolby Digital
Mode extension              : CM (complete main)
Format settings, Endianness : Big
Codec ID                    : A_AC3
Duration                    : 1h 36mn
Bit rate mode              : Constant
Bit rate                    : 192 Kbps
Channel(s)                  : 2 channels
Channel positions          : Front: L R
Sampling rate              : 48.0 KHz
Frame rate                  : 31.250 fps (1536 spf)
Compression mode            : Lossy
Stream size                : 133 MiB (0%)
Title                      : Hardcore.Henry.2015.1080p.BluRay.REMUX.AVC.DTS-HD.MA.5.1-RARBG
Language                    : English
Default                    : No
Forced                      : No

Text #1
ID                          : 7
Format                      : PGS
Muxing mode                : zlib
Codec ID                    : S_HDMV/PGS
Codec ID/Info              : Picture based subtitle format used on BDs/HD-DVDs
Title                      : English-PGS
Language                    : English
Default                    : No
Forced                      : No

Text #2
ID                          : 8
Format                      : PGS
Muxing mode                : zlib
Codec ID                    : S_HDMV/PGS
Codec ID/Info              : Picture based subtitle format used on BDs/HD-DVDs
Title                      : Spanish-PGS
Language                    : Spanish
Default                    : No
Forced                      : No

Text #3
ID                          : 9
Format                      : PGS
Muxing mode                : zlib
Codec ID                    : S_HDMV/PGS
Codec ID/Info              : Picture based subtitle format used on BDs/HD-DVDs
Title                      : French-PGS
Language                    : French
Default                    : No
Forced                      : No

Menu
00:00:00.000                : en:Chapter 01
00:04:04.327                : en:Chapter 02
00:08:36.641                : en:Chapter 03
00:14:12.935                : en:Chapter 04
00:18:45.332                : en:Chapter 05
00:22:38.815                : en:Chapter 06
00:26:11.987                : en:Chapter 07
00:30:04.969                : en:Chapter 08
00:34:30.193                : en:Chapter 09
00:37:44.262                : en:Chapter 10
00:42:19.537                : en:Chapter 11
00:47:05.447                : en:Chapter 12
00:52:51.084                : en:Chapter 13
00:56:00.482                : en:Chapter 14
01:03:47.824                : en:Chapter 15
01:11:23.988                : en:Chapter 16
01:15:54.883                : en:Chapter 17
01:22:04.502                : en:Chapter 18
01:24:09.961                : en:Chapter 19
01:29:31.115                : en:Chapter 20

kód:

http://www.fastshare.cz/6180528/gbrrmhsdxmrrb08015102rhrh.part01.rar
http://www.fastshare.cz/6180536/gbrrmhsdxmrrb08015102rhrh.part02.rar
http://www.fastshare.cz/6180546/gbrrmhsdxmrrb08015102rhrh.part03.rar
http://www.fastshare.cz/6180554/gbrrmhsdxmrrb08015102rhrh.part04.rar
http://www.fastshare.cz/6180561/gbrrmhsdxmrrb08015102rhrh.part05.rar
http://www.fastshare.cz/6180569/gbrrmhsdxmrrb08015102rhrh.part06.rar
http://www.fastshare.cz/6180578/gbrrmhsdxmrrb08015102rhrh.part07.rar
http://www.fastshare.cz/6180586/gbrrmhsdxmrrb08015102rhrh.part08.rar
http://www.fastshare.cz/6180596/gbrrmhsdxmrrb08015102rhrh.part09.rar
http://www.fastshare.cz/6180608/gbrrmhsdxmrrb08015102rhrh.part10.rar
http://www.fastshare.cz/6180619/gbrrmhsdxmrrb08015102rhrh.part11.rar
http://www.fastshare.cz/6180628/gbrrmhsdxmrrb08015102rhrh.part12.rar
http://www.fastshare.cz/6180641/gbrrmhsdxmrrb08015102rhrh.part13.rar
http://www.fastshare.cz/6180655/gbrrmhsdxmrrb08015102rhrh.part14.rar

kód:

http://sdilej.cz/7877567/_o1_/GBRRMHSDXMRRB08015102rHrH.part01.rar
http://sdilej.cz/7877569/xEP1/GBRRMHSDXMRRB08015102rHrH.part02.rar
http://sdilej.cz/7877571/__YK/GBRRMHSDXMRRB08015102rHrH.part03.rar
http://sdilej.cz/7877573/6Bs9/GBRRMHSDXMRRB08015102rHrH.part04.rar
http://sdilej.cz/7877575/kB8_/GBRRMHSDXMRRB08015102rHrH.part05.rar
http://sdilej.cz/7877579/aaAd/GBRRMHSDXMRRB08015102rHrH.part06.rar
http://sdilej.cz/7877581/o604/GBRRMHSDXMRRB08015102rHrH.part07.rar
http://sdilej.cz/7877582/AxZL/GBRRMHSDXMRRB08015102rHrH.part08.rar
http://sdilej.cz/7877583/5DBP/GBRRMHSDXMRRB08015102rHrH.part09.rar
http://sdilej.cz/7877584/h_D_/GBRRMHSDXMRRB08015102rHrH.part10.rar
http://sdilej.cz/7877585/J0pb/GBRRMHSDXMRRB08015102rHrH.part11.rar
http://sdilej.cz/7877586/_5ss/GBRRMHSDXMRRB08015102rHrH.part12.rar
http://sdilej.cz/7877587/2K0q/GBRRMHSDXMRRB08015102rHrH.part13.rar
http://sdilej.cz/7877590/z_dk/GBRRMHSDXMRRB08015102rHrH.part14.rar

Upload 3% na opravu dat

no pass
Návrat hore Goto down
Zobrazit informácie o autorovi
Sponsored content




OdoslaťPredmet: Re: Hardcore Henry (2015)   

Návrat hore Goto down
 
Hardcore Henry (2015)
Zobraziť predchádzajúcu tému Zobraziť nasledujúcu tému Návrat hore 
Strana 1 z 1

Povolenie tohoto fóra:Nemôžete odpovedať na témy v tomto fóre.
Warforum :: Sťahuj :: FILMY-
Prejdi na: