Warforum

stahuj.forumonline.biz
 
DomovFAQHľadaťRegistráciaZoznam užívateľovUžívateľské skupinyPrihlásenie

Share | 
 

 Deadpool (2016)

Zobraziť predchádzajúcu tému Zobraziť nasledujúcu tému Goto down 
AutorSpráva
Jack86



Počet príspevkov : 110
Registration date : 10.02.2010

OdoslaťPredmet: Deadpool (2016)   So máj 14, 2016 5:42 pm




kód:

http://www.csfd.cz/film/261379-deadpool/prehled/
http://www.imdb.com/title/tt1431045/combined


[size=140]Deadpool.2016.1080p.BluRay.x264-Hex[/size]

kód:
Deadpool.2016.1080p.BluRay.x264-Hex
Format                      : Matroska
Format version              : Version 4 / Version 2
File size                  : 12.7 GiB
Duration                    : 1h 48mn
Overall bit rate            : 16.9 Mbps
Encoded date                : UTC 2016-05-09 04:16:37
Writing application        : mkvmerge v9.1.0 ('Little Earthquakes') 64bit
Writing library            : libebml v1.3.3 + libmatroska v1.4.4

Video
ID                          : 5
Format                      : AVC
Format/Info                : Advanced Video Codec
Format profile              : High@L4.1
Format settings, CABAC      : Yes
Format settings, ReFrames  : 5 frames
Codec ID                    : V_MPEG4/ISO/AVC
Duration                    : 1h 48mn
Bit rate                    : 11.5 Mbps
Width                      : 1 920 pixels
Height                      : 808 pixels
Display aspect ratio        : 2.40:1
Frame rate mode            : Constant
Frame rate                  : 23.976 (24000/1001) fps
Color space                : YUV
Chroma subsampling          : 4:2:0
Bit depth                  : 8 bits
Scan type                  : Progressive
Bits/(Pixel*Frame)          : 0.309
Stream size                : 8.68 GiB (68%)
Writing library            : x264 core 142 r2431+42 c69a006 tMod [8-bit@all X86_64]
Encoding settings          : cabac=1 / ref=5 / deblock=1:-3:-3 / analyse=0x3:0x133 / me=umh / subme=11 / psy=1 / fade_compensate=0.00 / psy_rd=1.00:1.00 / mixed_ref=1 / me_range=36 / chroma_me=1 / trellis=2 / 8x8dct=1 / cqm=0 / deadzone=21,11 / fast_pskip=0 / chroma_qp_offset=-4 / threads=16 / lookahead_threads=2 / sliced_threads=0 / nr=0 / decimate=0 / interlaced=0 / bluray_compat=0 / constrained_intra=0 / fgo=0 / bframes=9 / b_pyramid=2 / b_adapt=2 / b_bias=0 / direct=3 / weightb=1 / open_gop=0 / weightp=2 / keyint=240 / keyint_min=23 / scenecut=40 / intra_refresh=0 / rc_lookahead=150 / rc=2pass / mbtree=0 / bitrate=11500 / ratetol=1.0 / qcomp=0.60 / qpmin=0:0:0 / qpmax=69:69:69 / qpstep=4 / cplxblur=20.0 / qblur=0.5 / vbv_maxrate=40000 / vbv_bufsize=30000 / nal_hrd=none / filler=0 / ip_ratio=1.20 / pb_ratio=1.30 / aq=2:0.68 / aq-sensitivity=10.00 / aq-factor=1.00:1.00:1.00 / aq2=0 / aq3=0
Default                    : Yes
Forced                      : No
Color range                : Limited
Color primaries            : BT.709
Transfer characteristics    : BT.709
Matrix coefficients        : BT.709

Audio #1
ID                          : 1
Format                      : AC-3
Format/Info                : Audio Coding 3
Mode extension              : CM (complete main)
Format settings, Endianness : Big
Codec ID                    : A_AC3
Duration                    : 1h 48mn
Bit rate mode              : Constant
Bit rate                    : 448 Kbps
Channel(s)                  : 6 channels
Channel positions          : Front: L C R, Side: L R, LFE
Sampling rate              : 48.0 KHz
Frame rate                  : 31.250 fps (1536 spf)
Compression mode            : Lossy
Stream size                : 346 MiB (3%)
Title                      : CZ AC3 5.1 hexadron
Language                    : Czech
Default                    : Yes
Forced                      : No

Audio #2
ID                          : 6
Format                      : DTS
Format/Info                : Digital Theater Systems
Format profile              : MA / ES Matrix / Core
Mode                        : 16
Format settings, Endianness : Big
Codec ID                    : A_DTS
Duration                    : 1h 48mn
Bit rate mode              : Variable / Constant / Constant
Bit rate                    : 4 892 Kbps / 1 509 Kbps / 1 509 Kbps
Channel(s)                  : 8 channels / 7 channels / 6 channels
Channel positions          : Front: L C R, Side: L R, Back: L R, LFE / Front: L C R, Side: L R, Back: C, LFE / Front: L C R, Side: L R, LFE
Sampling rate              : 48.0 KHz
Frame rate                  : 93.750 fps (512 spf)
Bit depth                  : 24 bits
Compression mode            : Lossless / Lossy / Lossy
Stream size                : 3.69 GiB (29%)
Title                      : English DTS 5.1
Language                    : English
Default                    : No
Forced                      : No

Text #1
ID                          : 2
Format                      : PGS
Muxing mode                : zlib
Codec ID                    : S_HDMV/PGS
Codec ID/Info              : Picture based subtitle format used on BDs/HD-DVDs
Duration                    : 1h 44mn
Bit rate                    : 11.0 Kbps
Count of elements          : 2766
Stream size                : 8.23 MiB (0%)
Language                    : English
Default                    : Yes
Forced                      : No

Text #2
ID                          : 3
Format                      : PGS
Muxing mode                : zlib
Codec ID                    : S_HDMV/PGS
Codec ID/Info              : Picture based subtitle format used on BDs/HD-DVDs
Duration                    : 1h 47mn
Bit rate                    : 9 165 bps
Count of elements          : 2810
Stream size                : 7.02 MiB (0%)
Language                    : Czech
Default                    : No
Forced                      : No

Text #3
ID                          : 4
Format                      : PGS
Muxing mode                : zlib
Codec ID                    : S_HDMV/PGS
Codec ID/Info              : Picture based subtitle format used on BDs/HD-DVDs
Duration                    : 1h 47mn
Bit rate                    : 9 837 bps
Count of elements          : 2814
Stream size                : 7.54 MiB (0%)
Language                    : Slovak
Default                    : No
Forced                      : No

Text #4
ID                          : 7
Format                      : UTF-8
Codec ID                    : S_TEXT/UTF8
Codec ID/Info              : UTF-8 Plain Text
Duration                    : 52mn 54s
Bit rate                    : 0 bps
Count of elements          : 2
Stream size                : 56.0 Bytes (0%)
Title                      : Forced
Language                    : Czech
Default                    : No
Forced                      : No

Menu
00:00:00.000                : en:Chapter 01
00:03:04.726                : en:Chapter 03
00:05:53.019                : en:Chapter 05
00:09:30.820                : en:Chapter 07
00:13:19.089                : en:Chapter 09
00:16:48.716                : en:Chapter 11
00:20:12.544                : en:Chapter 13
00:22:06.408                : en:Chapter 15
00:27:09.628                : en:Chapter 17
00:31:58.958                : en:Chapter 19
00:36:51.709                : en:Chapter 21
00:41:06.172                : en:Chapter 23
00:44:45.766                : en:Chapter 25
00:46:56.605                : en:Chapter 27
00:50:10.966                : en:Chapter 29
00:53:18.028                : en:Chapter 31
00:55:33.038                : en:Chapter 33
00:59:07.752                : en:Chapter 35
01:03:05.239                : en:Chapter 37
01:07:06.439                : en:Chapter 39
01:09:15.568                : en:Chapter 41
01:12:29.720                : en:Chapter 43
01:16:46.393                : en:Chapter 45
01:20:43.713                : en:Chapter 47
01:25:53.398                : en:Chapter 49
01:31:03.791                : en:Chapter 51
01:34:46.972                : en:Chapter 53
01:39:52.736                : en:Chapter 55
01:48:05.979                : en:Chapter 56


kód:

http://www.fastshare.cz/5978043/.08016102d.part1.rar
http://www.fastshare.cz/5978072/.08016102d.part2.rar
http://www.fastshare.cz/5978096/.08016102d.part3.rar
http://www.fastshare.cz/5978127/.08016102d.part4.rar
http://www.fastshare.cz/5978156/.08016102d.part5.rar
http://www.fastshare.cz/5978180/.08016102d.part6.rar
http://www.fastshare.cz/5978201/.08016102d.part7.rar

kód:

http://file-share.top/file/196183/08016102d-part1-rar
http://file-share.top/file/196187/08016102d-part2-rar
http://file-share.top/file/196189/08016102d-part3-rar
http://file-share.top/file/196191/08016102d-part4-rar
http://file-share.top/file/196193/08016102d-part5-rar
http://file-share.top/file/196195/08016102d-part6-rar
http://file-share.top/file/196196/08016102d-part7-rar

kód:

http://sdilej.cz/7803285/KEJd/.08016102D.part1.rar
http://sdilej.cz/7803294/b4_7/.08016102D.part2.rar
http://sdilej.cz/7803302/0r1Y/.08016102D.part3.rar
http://sdilej.cz/7803309/_HDT/.08016102D.part4.rar
http://sdilej.cz/7803313/Dhta/.08016102D.part5.rar
http://sdilej.cz/7803320/A2Pk/.08016102D.part6.rar
http://sdilej.cz/7803324/Z43T/.08016102D.part7.rar


Upload 3% na opravu dat

no pass
Návrat hore Goto down
Zobrazit informácie o autorovi
Jack86



Počet príspevkov : 110
Registration date : 10.02.2010

OdoslaťPredmet: Re: Deadpool (2016)   Po máj 23, 2016 1:45 am




kód:

http://www.csfd.cz/film/261379-deadpool/prehled/
http://www.imdb.com/title/tt1431045/combined


[size=140]Deadpool.2016.1080p.BluRay.REMUX.AVC.DTS-HD.MA.7.1-RARBG + titulky[/size]

kód:
Deadpool.2016.1080p.BluRay.REMUX.AVC.DTS-HD.MA.7.1-RARBG
Format                      : Matroska
Format version              : Version 4 / Version 2
File size                  : 24.2 GiB
Duration                    : 1h 48mn
Overall bit rate mode      : Variable
Overall bit rate            : 32.0 Mbps
Movie name                  : Deadpool.2016.1080p.BluRay.REMUX.AVC.DTS-HD.MA.7.1-RARBG
Encoded date                : UTC 2016-04-27 07:22:03
Writing application        : mkvmerge v9.1.0 ('Little Earthquakes') 64bit
Writing library            : libebml v1.3.3 + libmatroska v1.4.4
Cover                      : Yes
Attachments                : cover_land.jpg / small_cover.jpg / small_cover_land.jpg / cover.jpg

Video
ID                          : 1
Format                      : AVC
Format/Info                : Advanced Video Codec
Format profile              : High@L4.1
Format settings, CABAC      : Yes
Format settings, ReFrames  : 4 frames
Codec ID                    : V_MPEG4/ISO/AVC
Duration                    : 1h 48mn
Bit rate mode              : Variable
Maximum bit rate            : 33.0 Mbps
Width                      : 1 920 pixels
Height                      : 1 080 pixels
Display aspect ratio        : 16:9
Frame rate mode            : Constant
Frame rate                  : 23.976 (24000/1001) fps
Color space                : YUV
Chroma subsampling          : 4:2:0
Bit depth                  : 8 bits
Scan type                  : Progressive
Title                      : Deadpool.2016.1080p.BluRay.REMUX.AVC.DTS-HD.MA.7.1-RARBG
Language                    : English
Default                    : No
Forced                      : No

Audio #1
ID                          : 2
Format                      : DTS
Format/Info                : Digital Theater Systems
Format profile              : MA / ES Matrix / Core
Mode                        : 16
Format settings, Endianness : Big
Codec ID                    : A_DTS
Duration                    : 1h 48mn
Bit rate mode              : Variable / Constant / Constant
Bit rate                    : Unknown / 1 509 Kbps / 1 509 Kbps
Channel(s)                  : 8 channels / 7 channels / 6 channels
Channel positions          : Front: L C R, Side: L R, Back: L R, LFE / Front: L C R, Side: L R, Back: C, LFE / Front: L C R, Side: L R, LFE
Sampling rate              : 48.0 KHz
Frame rate                  : 93.750 fps (512 spf)
Bit depth                  : 24 bits
Compression mode            : Lossless / Lossy / Lossy
Title                      : Deadpool.2016.1080p.BluRay.REMUX.AVC.DTS-HD.MA.7.1-RARBG
Language                    : English
Default                    : Yes
Forced                      : No

Audio #2
ID                          : 3
Format                      : DTS
Format/Info                : Digital Theater Systems
Format profile              : ES Matrix / Core
Mode                        : 16
Format settings, Endianness : Big
Codec ID                    : A_DTS
Duration                    : 1h 48mn
Bit rate mode              : Constant
Bit rate                    : 1 509 Kbps
Channel(s)                  : 7 channels / 6 channels
Channel positions          : Front: L C R, Side: L R, Back: C, LFE / Front: L C R, Side: L R, LFE
Sampling rate              : 48.0 KHz
Frame rate                  : 93.750 fps (512 spf)
Bit depth                  : 24 bits
Compression mode            : Lossy
Stream size                : 1.14 GiB (5%)
Title                      : Deadpool.2016.1080p.BluRay.REMUX.AVC.DTS-HD.MA.7.1-RARBG
Language                    : English
Default                    : No
Forced                      : No

Audio #3
ID                          : 4
Format                      : AC-3
Format/Info                : Audio Coding 3
Mode extension              : CM (complete main)
Format settings, Endianness : Big
Codec ID                    : A_AC3
Duration                    : 1h 48mn
Bit rate mode              : Constant
Bit rate                    : 448 Kbps
Channel(s)                  : 6 channels
Channel positions          : Front: L C R, Side: L R, LFE
Sampling rate              : 48.0 KHz
Frame rate                  : 31.250 fps (1536 spf)
Compression mode            : Lossy
Stream size                : 346 MiB (1%)
Title                      : Deadpool.2016.1080p.BluRay.REMUX.AVC.DTS-HD.MA.7.1-RARBG
Language                    : English
Default                    : No
Forced                      : No

Audio #4
ID                          : 5
Format                      : AC-3
Format/Info                : Audio Coding 3
Mode extension              : CM (complete main)
Format settings, Endianness : Big
Codec ID                    : A_AC3
Duration                    : 1h 48mn
Bit rate mode              : Constant
Bit rate                    : 448 Kbps
Channel(s)                  : 6 channels
Channel positions          : Front: L C R, Side: L R, LFE
Sampling rate              : 48.0 KHz
Frame rate                  : 31.250 fps (1536 spf)
Compression mode            : Lossy
Stream size                : 346 MiB (1%)
Title                      : Deadpool.2016.1080p.BluRay.REMUX.AVC.DTS-HD.MA.7.1-RARBG
Language                    : Spanish
Default                    : No
Forced                      : No

Audio #5
ID                          : 6
Format                      : AC-3
Format/Info                : Audio Coding 3
Mode extension              : CM (complete main)
Format settings, Endianness : Big
Codec ID                    : A_AC3
Duration                    : 1h 48mn
Bit rate mode              : Constant
Bit rate                    : 448 Kbps
Channel(s)                  : 6 channels
Channel positions          : Front: L C R, Side: L R, LFE
Sampling rate              : 48.0 KHz
Frame rate                  : 31.250 fps (1536 spf)
Compression mode            : Lossy
Stream size                : 346 MiB (1%)
Title                      : Deadpool.2016.1080p.BluRay.REMUX.AVC.DTS-HD.MA.7.1-RARBG
Language                    : French
Default                    : No
Forced                      : No

Audio #6
ID                          : 7
Format                      : AC-3
Format/Info                : Audio Coding 3
Mode extension              : CM (complete main)
Format settings, Endianness : Big
Codec ID                    : A_AC3
Duration                    : 1h 48mn
Bit rate mode              : Constant
Bit rate                    : 224 Kbps
Channel(s)                  : 2 channels
Channel positions          : Front: L R
Sampling rate              : 48.0 KHz
Frame rate                  : 31.250 fps (1536 spf)
Compression mode            : Lossy
Stream size                : 173 MiB (1%)
Title                      : Deadpool.2016.1080p.BluRay.REMUX.AVC.DTS-HD.MA.7.1-RARBG
Language                    : English
Default                    : No
Forced                      : No

Audio #7
ID                          : 8
Format                      : AC-3
Format/Info                : Audio Coding 3
Mode extension              : CM (complete main)
Format settings, Endianness : Big
Codec ID                    : A_AC3
Duration                    : 1h 48mn
Bit rate mode              : Constant
Bit rate                    : 224 Kbps
Channel(s)                  : 2 channels
Channel positions          : Front: L R
Sampling rate              : 48.0 KHz
Frame rate                  : 31.250 fps (1536 spf)
Compression mode            : Lossy
Stream size                : 173 MiB (1%)
Title                      : Deadpool.2016.1080p.BluRay.REMUX.AVC.DTS-HD.MA.7.1-RARBG
Language                    : English
Default                    : No
Forced                      : No

Text #1
ID                          : 9
Format                      : PGS
Muxing mode                : zlib
Codec ID                    : S_HDMV/PGS
Codec ID/Info              : Picture based subtitle format used on BDs/HD-DVDs
Title                      : English-PGS
Language                    : English
Default                    : No
Forced                      : No

Text #2
ID                          : 10
Format                      : PGS
Muxing mode                : zlib
Codec ID                    : S_HDMV/PGS
Codec ID/Info              : Picture based subtitle format used on BDs/HD-DVDs
Title                      : English-FORCED-PGS
Language                    : English
Default                    : No
Forced                      : No

Text #3
ID                          : 11
Format                      : PGS
Muxing mode                : zlib
Codec ID                    : S_HDMV/PGS
Codec ID/Info              : Picture based subtitle format used on BDs/HD-DVDs
Title                      : Spanish-PGS
Language                    : Spanish
Default                    : No
Forced                      : No

Text #4
ID                          : 12
Format                      : PGS
Muxing mode                : zlib
Codec ID                    : S_HDMV/PGS
Codec ID/Info              : Picture based subtitle format used on BDs/HD-DVDs
Title                      : Spanish-FORCED-PGS
Language                    : Spanish
Default                    : No
Forced                      : No

Text #5
ID                          : 13
Format                      : PGS
Muxing mode                : zlib
Codec ID                    : S_HDMV/PGS
Codec ID/Info              : Picture based subtitle format used on BDs/HD-DVDs
Title                      : French-PGS
Language                    : French
Default                    : No
Forced                      : No

Text #6
ID                          : 14
Format                      : PGS
Muxing mode                : zlib
Codec ID                    : S_HDMV/PGS
Codec ID/Info              : Picture based subtitle format used on BDs/HD-DVDs
Title                      : French-FORCED-PGS
Language                    : French
Default                    : No
Forced                      : No

Text #7
ID                          : 15
Format                      : PGS
Muxing mode                : zlib
Codec ID                    : S_HDMV/PGS
Codec ID/Info              : Picture based subtitle format used on BDs/HD-DVDs
Title                      : English-COMMENTARY-PGS
Language                    : English
Default                    : No
Forced                      : No

Text #8
ID                          : 16
Format                      : PGS
Muxing mode                : zlib
Codec ID                    : S_HDMV/PGS
Codec ID/Info              : Picture based subtitle format used on BDs/HD-DVDs
Title                      : Spanish-COMMENTARY-PGS
Language                    : Spanish
Default                    : No
Forced                      : No

Text #9
ID                          : 17
Format                      : PGS
Muxing mode                : zlib
Codec ID                    : S_HDMV/PGS
Codec ID/Info              : Picture based subtitle format used on BDs/HD-DVDs
Title                      : French-COMMENTARY-PGS
Language                    : French
Default                    : No
Forced                      : No

Text #10
ID                          : 18
Format                      : PGS
Muxing mode                : zlib
Codec ID                    : S_HDMV/PGS
Codec ID/Info              : Picture based subtitle format used on BDs/HD-DVDs
Title                      : English-COMMENTARY2-PGS
Language                    : English
Default                    : No
Forced                      : No

Text #11
ID                          : 19
Format                      : PGS
Muxing mode                : zlib
Codec ID                    : S_HDMV/PGS
Codec ID/Info              : Picture based subtitle format used on BDs/HD-DVDs
Title                      : Spanish-COMMENTARY2-PGS
Language                    : Spanish
Default                    : No
Forced                      : No

Text #12
ID                          : 20
Format                      : PGS
Muxing mode                : zlib
Codec ID                    : S_HDMV/PGS
Codec ID/Info              : Picture based subtitle format used on BDs/HD-DVDs
Title                      : French-COMMENTARY2-PGS
Language                    : French
Default                    : No
Forced                      : No

Menu
00:00:00.000                : en:Chapter 01
00:03:04.726                : en:Chapter 02
00:05:53.019                : en:Chapter 03
00:09:30.820                : en:Chapter 04
00:13:19.089                : en:Chapter 05
00:16:48.716                : en:Chapter 06
00:20:12.544                : en:Chapter 07
00:22:06.408                : en:Chapter 08
00:27:09.628                : en:Chapter 09
00:31:58.958                : en:Chapter 10
00:36:51.709                : en:Chapter 11
00:41:06.172                : en:Chapter 12
00:44:45.766                : en:Chapter 13
00:46:56.605                : en:Chapter 14
00:50:10.966                : en:Chapter 15
00:53:18.028                : en:Chapter 16
00:55:33.038                : en:Chapter 17
00:59:07.752                : en:Chapter 18
01:03:05.239                : en:Chapter 19
01:07:06.439                : en:Chapter 20
01:09:15.568                : en:Chapter 21
01:12:29.720                : en:Chapter 22
01:16:46.393                : en:Chapter 23
01:20:43.713                : en:Chapter 24
01:25:53.398                : en:Chapter 25
01:31:03.791                : en:Chapter 26
01:34:46.972                : en:Chapter 27
01:39:52.736                : en:Chapter 28


kód:

http://www.fastshare.cz/6005547/r08016102d.part01.rar
http://www.fastshare.cz/6005557/r08016102d.part02.rar
http://www.fastshare.cz/6005562/r08016102d.part03.rar
http://www.fastshare.cz/6005569/r08016102d.part04.rar
http://www.fastshare.cz/6005578/r08016102d.part05.rar
http://www.fastshare.cz/6005590/r08016102d.part06.rar
http://www.fastshare.cz/6005599/r08016102d.part07.rar
http://www.fastshare.cz/6005612/r08016102d.part08.rar
http://www.fastshare.cz/6005619/r08016102d.part09.rar
http://www.fastshare.cz/6005628/r08016102d.part10.rar
http://www.fastshare.cz/6005636/r08016102d.part11.rar
http://www.fastshare.cz/6005647/r08016102d.part12.rar
http://www.fastshare.cz/6005652/r08016102d.part13.rar

kód:

http://file-share.top/file/201182/r08016102d-part01-rar
http://file-share.top/file/201183/r08016102d-part02-rar
http://file-share.top/file/201184/r08016102d-part03-rar
http://file-share.top/file/201185/r08016102d-part04-rar
http://file-share.top/file/201186/r08016102d-part05-rar
http://file-share.top/file/201187/r08016102d-part06-rar
http://file-share.top/file/201188/r08016102d-part07-rar
http://file-share.top/file/201189/r08016102d-part08-rar
http://file-share.top/file/201190/r08016102d-part09-rar
http://file-share.top/file/201191/r08016102d-part10-rar
http://file-share.top/file/201192/r08016102d-part11-rar
http://file-share.top/file/201193/r08016102d-part12-rar
http://file-share.top/file/201194/r08016102d-part13-rar

kód:

http://sdilej.cz/7816243/qtSv/R08016102D.part01.rar
http://sdilej.cz/7816253/1Da_/R08016102D.part02.rar
http://sdilej.cz/7816257/iHaV/R08016102D.part03.rar
http://sdilej.cz/7816258/VY94/R08016102D.part04.rar
http://sdilej.cz/7816261/K___/R08016102D.part05.rar
http://sdilej.cz/7816263/jkwa/R08016102D.part06.rar
http://sdilej.cz/7816266/zsmN/R08016102D.part07.rar
http://sdilej.cz/7816267/_4rR/R08016102D.part08.rar
http://sdilej.cz/7816269/gdQ5/R08016102D.part09.rar
http://sdilej.cz/7816270/JyGD/R08016102D.part10.rar
http://sdilej.cz/7816272/hW0n/R08016102D.part11.rar
http://sdilej.cz/7816275/fq6N/R08016102D.part12.rar
http://sdilej.cz/7816277/g3m_/R08016102D.part13.rar


Upload 3% na opravu dat

no pass
Návrat hore Goto down
Zobrazit informácie o autorovi
 
Deadpool (2016)
Zobraziť predchádzajúcu tému Zobraziť nasledujúcu tému Návrat hore 
Strana 1 z 1

Povolenie tohoto fóra:Nemôžete odpovedať na témy v tomto fóre.
Warforum :: Sťahuj :: FILMY-
Prejdi na: