Warforum

stahuj.forumonline.biz
 
DomovFAQHľadaťRegistráciaZoznam užívateľovUžívateľské skupinyPrihlásenie

Share | 
 

 Rychle a zběsile 7 / Fast & Furious 7 (2015)

Zobraziť predchádzajúcu tému Zobraziť nasledujúcu tému Goto down 
AutorSpráva
Jack86



Počet príspevkov : 110
Registration date : 10.02.2010

OdoslaťPredmet: Rychle a zběsile 7 / Fast & Furious 7 (2015)   St máj 11, 2016 11:25 pm




kód:

http://www.csfd.cz/film/340855-rychle-a-zbesile-7/prehled/
http://www.imdb.com/title/tt2820852/combined


[size=140]Furious.Seven.2015.EXTENDED.1080p.BluRay.x264.DTS-HD.MA.7.1-RARBG[/size]


Audio: EN, CZ
Titulky: CZ, CZ (f)


kód:
Furious.Seven.2015.EXTENDED.1080p.BluRay.x264.DTS-HD.MA.7.1-RARBG
Format                      : Matroska
Format version              : Version 4 / Version 2
File size                  : 13.8 GiB
Duration                    : 2h 19mn
Overall bit rate            : 14.1 Mbps
Movie name                  : Furious.Seven.2015.EXTENDED.1080p.BluRay.x264.DTS-HD.MA.7.1-RARBG
Encoded date                : UTC 2015-08-04 16:27:53
Writing application        : mkvmerge v8.2.0 ('World of Adventure') 64bit
Writing library            : libebml v1.3.1 + libmatroska v1.4.2

Video
ID                          : 1
Format                      : AVC
Format/Info                : Advanced Video Codec
Format profile              : High@L4.1
Format settings, CABAC      : Yes
Format settings, ReFrames  : 5 frames
Codec ID                    : V_MPEG4/ISO/AVC
Duration                    : 2h 19mn
Bit rate                    : 8 554 Kbps
Width                      : 1 920 pixels
Height                      : 800 pixels
Display aspect ratio        : 2.40:1
Frame rate mode            : Constant
Frame rate                  : 23.976 fps
Color space                : YUV
Chroma subsampling          : 4:2:0
Bit depth                  : 8 bits
Scan type                  : Progressive
Bits/(Pixel*Frame)          : 0.232
Stream size                : 8.35 GiB (61%)
Title                      : Furious.Seven.2015.EXTENDED.1080p.BluRay.x264.DTS-HD.MA.7.1-RARBG
Writing library            : x264 core 146 r2538 121396c
Encoding settings          : cabac=1 / ref=5 / deblock=1:0:0 / analyse=0x3:0x133 / me=umh / subme=7 / psy=1 / psy_rd=1.00:0.00 / mixed_ref=1 / me_range=16 / chroma_me=1 / trellis=1 / 8x8dct=1 / cqm=0 / deadzone=21,11 / fast_pskip=0 / chroma_qp_offset=-2 / threads=60 / lookahead_threads=6 / sliced_threads=0 / nr=0 / decimate=1 / interlaced=0 / bluray_compat=0 / constrained_intra=0 / bframes=3 / b_pyramid=2 / b_adapt=1 / b_bias=0 / direct=1 / weightb=1 / open_gop=0 / weightp=2 / keyint=250 / keyint_min=23 / scenecut=40 / intra_refresh=0 / rc_lookahead=40 / rc=2pass / mbtree=1 / bitrate=8554 / ratetol=1.0 / qcomp=0.60 / qpmin=0 / qpmax=69 / qpstep=4 / cplxblur=20.0 / qblur=0.5 / ip_ratio=1.40 / aq=1:1.00
Language                    : English
Default                    : Yes
Forced                      : No

Audio #1
ID                          : 2
Format                      : DTS
Format/Info                : Digital Theater Systems
Format profile              : MA / Core
Mode                        : 16
Format settings, Endianness : Big
Codec ID                    : A_DTS
Duration                    : 2h 19mn
Bit rate mode              : Variable / Constant
Bit rate                    : 4 922 Kbps / 1 509 Kbps
Channel(s)                  : 8 channels / 6 channels
Channel positions          : Front: L C R, Side: L R, Back: L R, LFE / Front: L C R, Side: L R, LFE
Sampling rate              : 48.0 KHz
Frame rate                  : 93.750 fps (512 spf)
Bit depth                  : 24 bits
Compression mode            : Lossless / Lossy
Stream size                : 4.81 GiB (35%)
Title                      : Furious.Seven.2015.EXTENDED.1080p.BluRay.x264.DTS-HD.MA.7.1-RARBG
Language                    : English
Default                    : Yes
Forced                      : No

Audio #2
ID                          : 4
Format                      : AC-3
Format/Info                : Audio Coding 3
Mode extension              : CM (complete main)
Format settings, Endianness : Big
Codec ID                    : A_AC3
Duration                    : 2h 19mn
Bit rate mode              : Constant
Bit rate                    : 640 Kbps
Channel(s)                  : 6 channels
Channel positions          : Front: L C R, Side: L R, LFE
Sampling rate              : 48.0 KHz
Frame rate                  : 31.250 fps (1536 spf)
Compression mode            : Lossy
Stream size                : 640 MiB (5%)
Language                    : Czech
Default                    : No
Forced                      : No

Text #1
ID                          : 3
Format                      : UTF-8
Codec ID                    : S_TEXT/UTF8
Codec ID/Info              : UTF-8 Plain Text
Duration                    : 2h 12mn
Bit rate                    : 38 bps
Count of elements          : 973
Stream size                : 37.3 KiB (0%)
Title                      : full
Language                    : Czech
Default                    : Yes
Forced                      : No

Text #2
ID                          : 5
Format                      : UTF-8
Codec ID                    : S_TEXT/UTF8
Codec ID/Info              : UTF-8 Plain Text
Duration                    : 2h 19mn
Bit rate                    : 0 bps
Count of elements          : 12
Stream size                : 307 Bytes (0%)
Title                      : forced
Language                    : Czech
Default                    : No
Forced                      : No

Menu
00:00:00.000                : en:00:00:00.000
00:04:39.946                : en:00:04:39.946
00:11:29.480                : en:00:11:29.480
00:16:39.290                : en:00:16:39.290
00:25:54.052                : en:00:25:54.052
00:33:43.897                : en:00:33:43.897
00:41:44.585                : en:00:41:44.585
00:46:41.006                : en:00:46:41.006
00:52:10.711                : en:00:52:10.711
01:02:31.414                : en:01:02:31.414
01:06:16.681                : en:01:06:16.681
01:14:16.869                : en:01:14:16.869
01:22:34.032                : en:01:22:34.032
01:33:21.137                : en:01:33:21.137
01:38:27.485                : en:01:38:27.485
01:45:40.084                : en:01:45:40.084
01:53:54.452                : en:01:53:54.452
01:58:31.062                : en:01:58:31.062
02:06:19.864                : en:02:06:19.864
02:11:31.175                : en:02:11:31.175

kód:

http://www.fastshare.cz/5957334/08015102sf.part1.rar
http://www.fastshare.cz/5957339/08015102sf.part2.rar
http://www.fastshare.cz/5957356/08015102sf.part3.rar
http://www.fastshare.cz/5957366/08015102sf.part4.rar
http://www.fastshare.cz/5957390/08015102sf.part5.rar
http://www.fastshare.cz/5957418/08015102sf.part6.rar
http://www.fastshare.cz/5957436/08015102sf.part7.rar
http://www.fastshare.cz/5957439/08015102sf.part8.rar

kód:

http://file-share.top/file/193310/08015102sf-part1-rar
http://file-share.top/file/193314/08015102sf-part2-rar
http://file-share.top/file/193320/08015102sf-part3-rar
http://file-share.top/file/193322/08015102sf-part4-rar
http://file-share.top/file/193324/08015102sf-part5-rar
http://file-share.top/file/193325/08015102sf-part6-rar
http://file-share.top/file/193327/08015102sf-part7-rar
http://file-share.top/file/193328/08015102sf-part8-rar

kód:

http://sdilej.cz/7787597/mqEP/08015102SF.part1.rar
http://sdilej.cz/7787602/WvKK/08015102SF.part2.rar
http://sdilej.cz/7787606/3JfE/08015102SF.part3.rar
http://sdilej.cz/7787612/_cZ6/08015102SF.part4.rar
http://sdilej.cz/7787619/6NrL/08015102SF.part5.rar
http://sdilej.cz/7787622/Ymum/08015102SF.part6.rar
http://sdilej.cz/7787628/dO0_/08015102SF.part7.rar
http://sdilej.cz/7787632/mteL/08015102SF.part8.rar


Upload 3% na opravu dat

no pass
Návrat hore Goto down
Zobrazit informácie o autorovi
 
Rychle a zběsile 7 / Fast & Furious 7 (2015)
Zobraziť predchádzajúcu tému Zobraziť nasledujúcu tému Návrat hore 
Strana 1 z 1

Povolenie tohoto fóra:Nemôžete odpovedať na témy v tomto fóre.
Warforum :: Sťahuj :: FILMY-
Prejdi na: