Warforum

stahuj.forumonline.biz
 
DomovFAQHľadaťRegistráciaZoznam užívateľovUžívateľské skupinyPrihlásenie

Share | 
 

 Everest (2015)

Zobraziť predchádzajúcu tému Zobraziť nasledujúcu tému Goto down 
AutorSpráva
Jack86



Počet príspevkov : 110
Registration date : 10.02.2010

OdoslaťPredmet: Everest (2015)   St máj 11, 2016 7:26 pm




kód:

http://www.csfd.cz/film/343109-everest/prehled/
http://www.imdb.com/title/tt2719848/combined


[size=140]Everest.2015.1080p.BluRay.x264.TrueHD.7.1.Atmos-RARBG[/size]


Audio: EN, CZ
Titulky: CZ


kód:
Everest.2015.1080p.BluRay.x264.TrueHD.7.1.Atmos-RARBG
Format                      : Matroska
Format version              : Version 4 / Version 2
File size                  : 16.9 GiB
Duration                    : 2h 1mn
Overall bit rate mode      : Variable
Overall bit rate            : 20.0 Mbps
Movie name                  : Everest.2015.1080p.BluRay.x264.TrueHD.7.1.Atmos-RARBG
Encoded date                : UTC 2015-12-18 16:30:25
Writing application        : mkvmerge v8.6.1 ('Flying') 64bit
Writing library            : libebml v1.3.3 + libmatroska v1.4.4

Video
ID                          : 1
Format                      : AVC
Format/Info                : Advanced Video Codec
Format profile              : High@L4.1
Format settings, CABAC      : Yes
Format settings, ReFrames  : 5 frames
Codec ID                    : V_MPEG4/ISO/AVC
Duration                    : 2h 1mn
Bit rate                    : 8 746 Kbps
Width                      : 1 920 pixels
Height                      : 808 pixels
Display aspect ratio        : 2.40:1
Frame rate mode            : Constant
Frame rate                  : 23.976 fps
Color space                : YUV
Chroma subsampling          : 4:2:0
Bit depth                  : 8 bits
Scan type                  : Progressive
Bits/(Pixel*Frame)          : 0.235
Stream size                : 7.40 GiB (44%)
Title                      : Everest.2015.1080p.BluRay.x264.TrueHD.7.1.Atmos-RARBG
Writing library            : x264 core 148 r2638 7599210
Encoding settings          : cabac=1 / ref=5 / deblock=1:0:0 / analyse=0x3:0x133 / me=umh / subme=7 / psy=1 / psy_rd=1.00:0.00 / mixed_ref=1 / me_range=16 / chroma_me=1 / trellis=1 / 8x8dct=1 / cqm=0 / deadzone=21,11 / fast_pskip=0 / chroma_qp_offset=-2 / threads=12 / lookahead_threads=2 / sliced_threads=0 / nr=0 / decimate=1 / interlaced=0 / bluray_compat=0 / constrained_intra=0 / bframes=3 / b_pyramid=2 / b_adapt=1 / b_bias=0 / direct=1 / weightb=1 / open_gop=0 / weightp=2 / keyint=250 / keyint_min=23 / scenecut=40 / intra_refresh=0 / rc_lookahead=40 / rc=2pass / mbtree=1 / bitrate=8746 / ratetol=1.0 / qcomp=0.60 / qpmin=0 / qpmax=69 / qpstep=4 / cplxblur=20.0 / qblur=0.5 / ip_ratio=1.40 / aq=1:1.00
Language                    : English
Default                    : Yes
Forced                      : No

Audio #1
ID                          : 2
Format                      : Atmos / TrueHD
Codec ID                    : A_TRUEHD
Duration                    : 2h 1mn
Bit rate mode              : Variable
Bit rate                    : 4 887 Kbps
Maximum bit rate            : 8 922 Kbps
Channel(s)                  : Object Based / 8 channels
Channel positions          : Object Based / Front: L C R, Side: L R, Back: L R, LFE
Sampling rate              :  / 48.0 KHz
Frame rate                  : 1 200.000 fps (40 spf)
Compression mode            : Lossless
Stream size                : 4.14 GiB (24%)
Title                      : Everest.2015.1080p.BluRay.x264.TrueHD.7.1.Atmos-RARBG
Language                    : English
Default                    : No
Forced                      : No

Audio #2
ID                          : 3
Format                      : Atmos / TrueHD
Codec ID                    : A_TRUEHD
Duration                    : 2h 1mn
Bit rate mode              : Variable
Bit rate                    : 4 887 Kbps
Maximum bit rate            : 8 922 Kbps
Channel(s)                  : Object Based / 8 channels
Channel positions          : Object Based / Front: L C R, Side: L R, Back: L R, LFE
Sampling rate              :  / 48.0 KHz
Frame rate                  : 1 200.000 fps (40 spf)
Compression mode            : Lossless
Stream size                : 4.14 GiB (24%)
Language                    : English
Default                    : No
Forced                      : No

Audio #3
ID                          : 4
Format                      : AC-3
Format/Info                : Audio Coding 3
Mode extension              : CM (complete main)
Format settings, Endianness : Big
Codec ID                    : A_AC3
Duration                    : 2h 1mn
Bit rate mode              : Constant
Bit rate                    : 640 Kbps
Channel(s)                  : 6 channels
Channel positions          : Front: L C R, Side: L R, LFE
Sampling rate              : 48.0 KHz
Frame rate                  : 31.250 fps (1536 spf)
Compression mode            : Lossy
Stream size                : 555 MiB (3%)
Language                    : English
Default                    : No
Forced                      : No

Audio #4
ID                          : 5
Format                      : AC-3
Format/Info                : Audio Coding 3
Mode extension              : CM (complete main)
Format settings, Endianness : Big
Codec ID                    : A_AC3
Duration                    : 2h 1mn
Bit rate mode              : Constant
Bit rate                    : 640 Kbps
Channel(s)                  : 6 channels
Channel positions          : Front: L C R, Side: L R, LFE
Sampling rate              : 48.0 KHz
Frame rate                  : 31.250 fps (1536 spf)
Compression mode            : Lossy
Stream size                : 555 MiB (3%)
Language                    : Czech
Default                    : Yes
Forced                      : No

Text #1
ID                          : 6
Format                      : PGS
Muxing mode                : zlib
Codec ID                    : S_HDMV/PGS
Codec ID/Info              : Picture based subtitle format used on BDs/HD-DVDs
Duration                    : 1h 50mn
Bit rate                    : 13.7 Kbps
Count of elements          : 3606
Stream size                : 10.8 MiB (0%)
Language                    : English
Default                    : No
Forced                      : No

Text #2
ID                          : 7
Format                      : PGS
Muxing mode                : zlib
Codec ID                    : S_HDMV/PGS
Codec ID/Info              : Picture based subtitle format used on BDs/HD-DVDs
Duration                    : 1h 59mn
Bit rate                    : 8 391 bps
Count of elements          : 2835
Stream size                : 7.20 MiB (0%)
Language                    : Czech
Default                    : Yes
Forced                      : No

Text #3
ID                          : 8
Format                      : PGS
Muxing mode                : zlib
Codec ID                    : S_HDMV/PGS
Codec ID/Info              : Picture based subtitle format used on BDs/HD-DVDs
Duration                    : 1h 58mn
Bit rate                    : 56 bps
Count of elements          : 19
Stream size                : 49.4 KiB (0%)
Language                    : Czech
Default                    : No
Forced                      : No

kód:

http://www.fastshare.cz/5957612/08015102e.part01.rar
http://www.fastshare.cz/5957628/08015102e.part02.rar
http://www.fastshare.cz/5957637/08015102e.part03.rar
http://www.fastshare.cz/5957650/08015102e.part04.rar
http://www.fastshare.cz/5957661/08015102e.part05.rar
http://www.fastshare.cz/5957673/08015102e.part06.rar
http://www.fastshare.cz/5957691/08015102e.part07.rar
http://www.fastshare.cz/5957707/08015102e.part08.rar
http://www.fastshare.cz/5957756/08015102e.part09.rar

kód:

http://file-share.top/file/193521/08015102e-part01-rar
http://file-share.top/file/193523/08015102e-part02-rar
http://file-share.top/file/193524/08015102e-part03-rar
http://file-share.top/file/193525/08015102e-part04-rar
http://file-share.top/file/193526/08015102e-part05-rar
http://file-share.top/file/193528/08015102e-part06-rar
http://file-share.top/file/193529/08015102e-part07-rar
http://file-share.top/file/193533/08015102e-part08-rar
http://file-share.top/file/193536/08015102e-part09-rar

kód:

http://sdilej.cz/7787879/_h18/08015102E.part01.rar
http://sdilej.cz/7787881/f1J_/08015102E.part02.rar
http://sdilej.cz/7787888/_xH9/08015102E.part03.rar
http://sdilej.cz/7787890/576_/08015102E.part04.rar
http://sdilej.cz/7787895/v0IZ/08015102E.part05.rar
http://sdilej.cz/7787897/n8_y/08015102E.part06.rar
http://sdilej.cz/7787898/9Y55/08015102E.part07.rar
http://sdilej.cz/7787900/_AWc/08015102E.part08.rar
http://sdilej.cz/7787902/JLav/08015102E.part09.rar


Upload 3% na opravu dat

no pass
Návrat hore Goto down
Zobrazit informácie o autorovi
 
Everest (2015)
Zobraziť predchádzajúcu tému Zobraziť nasledujúcu tému Návrat hore 
Strana 1 z 1

Povolenie tohoto fóra:Nemôžete odpovedať na témy v tomto fóre.
Warforum :: Sťahuj :: FILMY-
Prejdi na: